  0
SECTION
  2
HEADER
  9
$ACADVER
  1
AC1018
  9
$ACADMAINTVER
 70
   104
  9
$DWGCODEPAGE
  3
ANSI_932
  9
$TITLE
  1
50ｋｇ型 LPガス容器　（サイホン管付）
  9
$SUBJECT
  1
HP掲載図
  9
$AUTHOR
  1
宮崎
  9
$COMMENTS
  1
元図：LP-118-16520^M^J^M^J^M^JLP-118-16470^M^J標準型^M^Jφ368×ｔ2.5　ｔ3.1^M^JW28軸直^M^J^M^J上記の鏡板厚を2.85に変更^M^J
  9
$LASTSAVEDBY
  1
CKK004820
  9
$INSBASE
 10
0.0
 20
0.0
 30
0.0
  9
$EXTMIN
 10
-43.40538657759043
 20
-49.99999983705084
 30
-0.0000000116415251
  9
$EXTMAX
 10
2386.594613053046
 20
1692.999998173866
 30
0.0
  9
$LIMMIN
 10
-3.17498779296875
 20
-3.174999952316284
  9
$LIMMAX
 10
416.8139953613281
 20
293.8356506824494
  9
$ORTHOMODE
 70
     1
  9
$REGENMODE
 70
     1
  9
$FILLMODE
 70
     1
  9
$QTEXTMODE
 70
     0
  9
$MIRRTEXT
 70
     0
  9
$LTSCALE
 40
0.5
  9
$ATTMODE
 70
     1
  9
$TEXTSIZE
 40
4.0
  9
$TRACEWID
 40
1.0
  9
$TEXTSTYLE
  7
Standard
  9
$CLAYER
  8
Size
  9
$CELTYPE
  6
ByLayer
  9
$CECOLOR
 62
   256
  9
$CELTSCALE
 40
1.0
  9
$DISPSILH
 70
     0
  9
$DIMSCALE
 40
1.0
  9
$DIMASZ
 40
0.001
  9
$DIMEXO
 40
0.625
  9
$DIMDLI
 40
6.0
  9
$DIMRND
 40
0.0
  9
$DIMDLE
 40
0.0
  9
$DIMEXE
 40
1.25
  9
$DIMTP
 40
0.0
  9
$DIMTM
 40
0.0
  9
$DIMTXT
 40
4.0
  9
$DIMCEN
 40
0.0
  9
$DIMTSZ
 40
0.0
  9
$DIMTOL
 70
     0
  9
$DIMLIM
 70
     0
  9
$DIMTIH
 70
     0
  9
$DIMTOH
 70
     0
  9
$DIMSE1
 70
     0
  9
$DIMSE2
 70
     0
  9
$DIMTAD
 70
     1
  9
$DIMZIN
 70
     9
  9
$DIMBLK
  1
30a
  9
$DIMASO
 70
     1
  9
$DIMSHO
 70
     1
  9
$DIMPOST
  1

  9
$DIMAPOST
  1

  9
$DIMALT
 70
     0
  9
$DIMALTD
 70
     3
  9
$DIMALTF
 40
0.03937007874016
  9
$DIMLFAC
 40
1.0
  9
$DIMTOFL
 70
     1
  9
$DIMTVP
 40
0.0
  9
$DIMTIX
 70
     0
  9
$DIMSOXD
 70
     0
  9
$DIMSAH
 70
     0
  9
$DIMBLK1
  1

  9
$DIMBLK2
  1

  9
$DIMSTYLE
  2
設計
  9
$DIMCLRD
 70
   256
  9
$DIMCLRE
 70
   256
  9
$DIMCLRT
 70
   256
  9
$DIMTFAC
 40
1.0
  9
$DIMGAP
 40
0.625
  9
$DIMJUST
 70
     0
  9
$DIMSD1
 70
     0
  9
$DIMSD2
 70
     0
  9
$DIMTOLJ
 70
     0
  9
$DIMTZIN
 70
     8
  9
$DIMALTZ
 70
     0
  9
$DIMALTTZ
 70
     0
  9
$DIMUPT
 70
     0
  9
$DIMDEC
 70
     2
  9
$DIMTDEC
 70
     2
  9
$DIMALTU
 70
     2
  9
$DIMALTTD
 70
     3
  9
$DIMTXSTY
  7
Standard
  9
$DIMAUNIT
 70
     0
  9
$DIMADEC
 70
     2
  9
$DIMALTRND
 40
0.0
  9
$DIMAZIN
 70
     1
  9
$DIMDSEP
 70
    46
  9
$DIMATFIT
 70
     3
  9
$DIMFRAC
 70
     0
  9
$DIMLDRBLK
  1
30a
  9
$DIMLUNIT
 70
     2
  9
$DIMLWD
 70
     9
  9
$DIMLWE
 70
     9
  9
$DIMTMOVE
 70
     0
  9
$LUNITS
 70
     2
  9
$LUPREC
 70
     4
  9
$SKETCHINC
 40
1.0
  9
$FILLETRAD
 40
0.0
  9
$AUNITS
 70
     0
  9
$AUPREC
 70
     0
  9
$MENU
  1
.
  9
$ELEVATION
 40
0.0
  9
$PELEVATION
 40
0.0
  9
$THICKNESS
 40
0.0
  9
$LIMCHECK
 70
     0
  9
$CHAMFERA
 40
0.0
  9
$CHAMFERB
 40
0.0
  9
$CHAMFERC
 40
0.0
  9
$CHAMFERD
 40
0.0
  9
$SKPOLY
 70
     0
  9
$TDCREATE
 40
2461018.667418982
  9
$TDUCREATE
 40
2461018.292418982
  9
$TDUPDATE
 40
2461018.670405093
  9
$TDUUPDATE
 40
2461018.295405093
  9
$TDINDWG
 40
0.0029629630
  9
$TDUSRTIMER
 40
0.0029629630
  9
$USRTIMER
 70
     1
  9
$ANGBASE
 50
0.0
  9
$ANGDIR
 70
     0
  9
$PDMODE
 70
     0
  9
$PDSIZE
 40
0.0
  9
$PLINEWID
 40
0.0
  9
$SPLFRAME
 70
     0
  9
$SPLINETYPE
 70
     6
  9
$SPLINESEGS
 70
     8
  9
$HANDSEED
  5
EFF
  9
$SURFTAB1
 70
     6
  9
$SURFTAB2
 70
     6
  9
$SURFTYPE
 70
     6
  9
$SURFU
 70
     6
  9
$SURFV
 70
     6
  9
$UCSBASE
  2

  9
$UCSNAME
  2

  9
$UCSORG
 10
0.0
 20
0.0
 30
0.0
  9
$UCSXDIR
 10
1.0
 20
0.0
 30
0.0
  9
$UCSYDIR
 10
0.0
 20
1.0
 30
0.0
  9
$UCSORTHOREF
  2

  9
$UCSORTHOVIEW
 70
     0
  9
$UCSORGTOP
 10
0.0
 20
0.0
 30
0.0
  9
$UCSORGBOTTOM
 10
0.0
 20
0.0
 30
0.0
  9
$UCSORGLEFT
 10
0.0
 20
0.0
 30
0.0
  9
$UCSORGRIGHT
 10
0.0
 20
0.0
 30
0.0
  9
$UCSORGFRONT
 10
0.0
 20
0.0
 30
0.0
  9
$UCSORGBACK
 10
0.0
 20
0.0
 30
0.0
  9
$PUCSBASE
  2

  9
$PUCSNAME
  2

  9
$PUCSORG
 10
0.0
 20
0.0
 30
0.0
  9
$PUCSXDIR
 10
1.0
 20
0.0
 30
0.0
  9
$PUCSYDIR
 10
0.0
 20
1.0
 30
0.0
  9
$PUCSORTHOREF
  2

  9
$PUCSORTHOVIEW
 70
     0
  9
$PUCSORGTOP
 10
0.0
 20
0.0
 30
0.0
  9
$PUCSORGBOTTOM
 10
0.0
 20
0.0
 30
0.0
  9
$PUCSORGLEFT
 10
0.0
 20
0.0
 30
0.0
  9
$PUCSORGRIGHT
 10
0.0
 20
0.0
 30
0.0
  9
$PUCSORGFRONT
 10
0.0
 20
0.0
 30
0.0
  9
$PUCSORGBACK
 10
0.0
 20
0.0
 30
0.0
  9
$USERI1
 70
     0
  9
$USERI2
 70
     0
  9
$USERI3
 70
     0
  9
$USERI4
 70
     0
  9
$USERI5
 70
     0
  9
$USERR1
 40
0.0
  9
$USERR2
 40
0.0
  9
$USERR3
 40
0.0
  9
$USERR4
 40
0.0
  9
$USERR5
 40
0.0
  9
$WORLDVIEW
 70
     1
  9
$SHADEDGE
 70
     3
  9
$SHADEDIF
 70
    70
  9
$TILEMODE
 70
     1
  9
$MAXACTVP
 70
    64
  9
$PINSBASE
 10
0.0
 20
0.0
 30
0.0
  9
$PLIMCHECK
 70
     0
  9
$PEXTMIN
 10
1.000000000000000E+20
 20
1.000000000000000E+20
 30
1.000000000000000E+20
  9
$PEXTMAX
 10
-1.000000000000000E+20
 20
-1.000000000000000E+20
 30
-1.000000000000000E+20
  9
$PLIMMIN
 10
0.0
 20
0.0
  9
$PLIMMAX
 10
297.0
 20
210.0
  9
$UNITMODE
 70
     0
  9
$VISRETAIN
 70
     1
  9
$PLINEGEN
 70
     0
  9
$PSLTSCALE
 70
     1
  9
$TREEDEPTH
 70
  3020
  9
$CMLSTYLE
  2
Standard
  9
$CMLJUST
 70
     0
  9
$CMLSCALE
 40
20.0
  9
$PROXYGRAPHICS
 70
     1
  9
$MEASUREMENT
 70
     1
  9
$CELWEIGHT
370
    -1
  9
$ENDCAPS
280
     0
  9
$JOINSTYLE
280
     0
  9
$LWDISPLAY
290
     0
  9
$INSUNITS
 70
     4
  9
$HYPERLINKBASE
  1

  9
$STYLESHEET
  1

  9
$XEDIT
290
     1
  9
$CEPSNTYPE
380
     0
  9
$PSTYLEMODE
290
     0
  9
$FINGERPRINTGUID
  2
{14CDC1EC-64F1-C348-A12C-97209EA912C3}
  9
$VERSIONGUID
  2
{35A2CFD7-2292-3747-9910-F1A691874F48}
  9
$EXTNAMES
290
     1
  9
$PSVPSCALE
 40
0.0
  9
$OLESTARTUP
290
     0
  9
$SORTENTS
280
   127
  9
$INDEXCTL
280
     0
  9
$HIDETEXT
280
     1
  9
$XCLIPFRAME
290
     0
  9
$HALOGAP
280
     0
  9
$OBSCOLOR
 70
   257
  9
$OBSLTYPE
280
     0
  9
$INTERSECTIONDISPLAY
280
     0
  9
$INTERSECTIONCOLOR
 70
   257
  9
$DIMASSOC
280
     2
  9
$PROJECTNAME
  1

  0
ENDSEC
  0
SECTION
  2
CLASSES
  0
CLASS
  1
ACDBDICTIONARYWDFLT
  2
AcDbDictionaryWithDefault
  3
ObjectDBX Classes
 90
        0
 91
        1
280
     0
281
     0
  0
CLASS
  1
MATERIAL
  2
AcDbMaterial
  3
ObjectDBX Classes
 90
     1153
 91
        3
280
     0
281
     0
  0
CLASS
  1
VISUALSTYLE
  2
AcDbVisualStyle
  3
ObjectDBX Classes
 90
     4095
 91
       24
280
     0
281
     0
  0
CLASS
  1
SCALE
  2
AcDbScale
  3
ObjectDBX Classes
 90
     1153
 91
       17
280
     0
281
     0
  0
CLASS
  1
TABLESTYLE
  2
AcDbTableStyle
  3
ObjectDBX Classes
 90
     4095
 91
        1
280
     0
281
     0
  0
CLASS
  1
MLEADERSTYLE
  2
AcDbMLeaderStyle
  3
ACDB_MLEADERSTYLE_CLASS
 90
     4095
 91
        1
280
     0
281
     0
  0
CLASS
  1
ACDBSECTIONVIEWSTYLE
  2
AcDbSectionViewStyle
  3
ObjectDBX Classes
 90
     1025
 91
        2
280
     0
281
     0
  0
CLASS
  1
ACDBDETAILVIEWSTYLE
  2
AcDbDetailViewStyle
  3
ObjectDBX Classes
 90
     1025
 91
        2
280
     0
281
     0
  0
CLASS
  1
SORTENTSTABLE
  2
AcDbSortentsTable
  3
ObjectDBX Classes
 90
        0
 91
        2
280
     0
281
     0
  0
CLASS
  1
DIMASSOC
  2
AcDbDimAssoc
  3
"AcDbDimAssoc|Product Desc:     AcDim ARX App For Dimension|Company:          Autodesk, Inc.|WEB Address:      www.autodesk.com"
 90
        0
 91
       13
280
     0
281
     0
  0
CLASS
  1
DICTIONARYVAR
  2
AcDbDictionaryVar
  3
ObjectDBX Classes
 90
        0
 91
       10
280
     0
281
     0
  0
CLASS
  1
CELLSTYLEMAP
  2
AcDbCellStyleMap
  3
ObjectDBX Classes
 90
     1152
 91
        1
280
     0
281
     0
  0
ENDSEC
  0
SECTION
  2
TABLES
  0
TABLE
  2
VPORT
  5
8
330
0
100
AcDbSymbolTable
 70
     1
  0
VPORT
  5
57
330
8
100
AcDbSymbolTableRecord
100
AcDbViewportTableRecord
  2
*Active
 70
     0
 10
0.0
 20
0.0
 11
1.0
 21
1.0
 12
1171.594613237727
 22
821.4999991684077
 13
0.0
 23
0.0
 14
10.0
 24
10.0
 15
10.0
 25
10.0
 16
0.0
 26
0.0
 36
1.0
 17
0.0
 27
0.0
 37
0.0
 40
1754.724213244175
 41
1.621773288439955
 42
50.0
 43
0.0
 44
0.0
 50
0.0
 51
0.0
 71
     0
 72
  1000
 73
     1
 74
     1
 75
     0
 76
     0
 77
     0
 78
     0
281
     0
 65
     1
110
0.0
120
0.0
130
0.0
111
1.0
121
0.0
131
0.0
112
0.0
122
1.0
132
0.0
 79
     0
146
0.0
1001
ACAD_NAV_VCDISPLAY
1070
     3
  0
ENDTAB
  0
TABLE
  2
LTYPE
  5
5
330
0
100
AcDbSymbolTable
 70
     4
  0
LTYPE
  5
5B
330
5
100
AcDbSymbolTableRecord
100
AcDbLinetypeTableRecord
  2
ByBlock
 70
     0
  3

 72
    65
 73
     0
 40
0.0
  0
LTYPE
  5
5C
330
5
100
AcDbSymbolTableRecord
100
AcDbLinetypeTableRecord
  2
ByLayer
 70
     0
  3

 72
    65
 73
     0
 40
0.0
  0
LTYPE
  5
5D
330
5
100
AcDbSymbolTableRecord
100
AcDbLinetypeTableRecord
  2
Continuous
 70
     0
  3
Solid line
 72
    65
 73
     0
 40
0.0
  0
LTYPE
  5
7A
330
5
100
AcDbSymbolTableRecord
100
AcDbLinetypeTableRecord
  2
CENTER2
 70
     0
  3
Center (.5x) ___ _ ___ _ ___ _ ___ _ ___ _ ___
 72
    65
 73
     4
 40
28.575
 49
19.05
 74
     0
 49
-3.174999999999999
 74
     0
 49
3.174999999999999
 74
     0
 49
-3.174999999999999
 74
     0
  0
LTYPE
  5
7B
330
5
100
AcDbSymbolTableRecord
100
AcDbLinetypeTableRecord
  2
HIDDEN2
 70
     0
  3
Hidden (.5x) _ _ _ _ _ _ _ _ _ _ _ _ _ _ _ _ _
 72
    65
 73
     2
 40
4.762499999999999
 49
3.174999999999999
 74
     0
 49
-1.587499999999999
 74
     0
  0
LTYPE
  5
7C
330
5
100
AcDbSymbolTableRecord
100
AcDbLinetypeTableRecord
  2
PHANTOM2
 70
     0
  3
Phantom (.5x) ___ _ _ ___ _ _ ___ _ _ ___ _ _
 72
    65
 73
     6
 40
31.75
 49
15.875
 74
     0
 49
-3.174999999999999
 74
     0
 49
3.174999999999999
 74
     0
 49
-3.174999999999999
 74
     0
 49
3.174999999999999
 74
     0
 49
-3.174999999999999
 74
     0
  0
ENDTAB
  0
TABLE
  2
LAYER
  5
2
102
{ACAD_XDICTIONARY
360
BB9
102
}
330
0
100
AcDbSymbolTable
 70
     8
  0
LAYER
  5
54
102
{ACAD_XDICTIONARY
360
E99
102
}
330
2
100
AcDbSymbolTableRecord
100
AcDbLayerTableRecord
  2
0
 70
     0
 62
     7
  6
Continuous
370
    -3
390
82
1001
AcAecLayerStandard
1000

1000

  0
LAYER
  5
79
330
2
100
AcDbSymbolTableRecord
100
AcDbLayerTableRecord
  2
Defpoints
 70
     0
 62
   151
  6
Continuous
290
     0
370
    -3
390
82
1001
AcAecLayerStandard
1000

1000
非表示用
  0
LAYER
  5
95
102
{ACAD_XDICTIONARY
360
96
102
}
330
2
100
AcDbSymbolTableRecord
100
AcDbLayerTableRecord
  2
Center
 70
     0
 62
     7
  6
CENTER2
370
     9
390
82
1001
AcAecLayerStandard
1000

1000
一点鎖線
  0
LAYER
  5
9A
102
{ACAD_XDICTIONARY
360
9B
102
}
330
2
100
AcDbSymbolTableRecord
100
AcDbLayerTableRecord
  2
Line
 70
     0
 62
     7
  6
Continuous
370
    30
390
82
1001
AcAecLayerStandard
1000

1000
直線
  0
LAYER
  5
AF
102
{ACAD_XDICTIONARY
360
B0
102
}
330
2
100
AcDbSymbolTableRecord
100
AcDbLayerTableRecord
  2
Hidden
 70
     0
 62
     7
  6
HIDDEN2
370
     9
390
82
1001
AcAecLayerStandard
1000

1000
点線
  0
LAYER
  5
D3
102
{ACAD_XDICTIONARY
360
D4
102
}
330
2
100
AcDbSymbolTableRecord
100
AcDbLayerTableRecord
  2
Phantom
 70
     0
 62
     7
  6
PHANTOM2
370
     9
390
82
1001
AcAecLayerStandard
1000

1000
二点鎖線
  0
LAYER
  5
20A
102
{ACAD_XDICTIONARY
360
20B
102
}
330
2
100
AcDbSymbolTableRecord
100
AcDbLayerTableRecord
  2
Size
 70
     0
 62
    40
  6
Continuous
370
    30
390
82
1001
AcAecLayerStandard
1000

1000
寸法
  0
LAYER
  5
40F
102
{ACAD_XDICTIONARY
360
410
102
}
330
2
100
AcDbSymbolTableRecord
100
AcDbLayerTableRecord
  2
Text
 70
     0
 62
     7
  6
Continuous
370
    30
390
82
1001
AcAecLayerStandard
1000

1000
文字
  0
ENDTAB
  0
TABLE
  2
STYLE
  5
3
330
0
100
AcDbSymbolTable
 70
     2
  0
STYLE
  5
55
330
3
100
AcDbSymbolTableRecord
100
AcDbTextStyleTableRecord
  2
Standard
 70
     0
 40
0.0
 41
1.0
 50
0.0
 71
     0
 42
4.0
  3
exthalf2.shx
  4
extfont2.shx
  0
STYLE
  5
5A
330
3
100
AcDbSymbolTableRecord
100
AcDbTextStyleTableRecord
  2
Annotative
 70
     0
 40
0.0
 41
1.0
 50
0.0
 71
     0
 42
0.2
  3
txt
  4

1001
AcadAnnotative
1000
AnnotativeData
1002
{
1070
     1
1070
     1
1002
}
  0
ENDTAB
  0
TABLE
  2
VIEW
  5
6
330
0
100
AcDbSymbolTable
 70
     6
  0
ENDTAB
  0
TABLE
  2
UCS
  5
7
330
0
100
AcDbSymbolTable
 70
     0
  0
ENDTAB
  0
TABLE
  2
APPID
  5
9
330
0
100
AcDbSymbolTable
 70
    17
  0
APPID
  5
56
330
9
100
AcDbSymbolTableRecord
100
AcDbRegAppTableRecord
  2
ACAD
 70
     0
  0
APPID
  5
5E
330
9
100
AcDbSymbolTableRecord
100
AcDbRegAppTableRecord
  2
AcadAnnotative
 70
     0
  0
APPID
  5
78
330
9
100
AcDbSymbolTableRecord
100
AcDbRegAppTableRecord
  2
ACAD_PSEXT
 70
     0
  0
APPID
  5
84
330
9
100
AcDbSymbolTableRecord
100
AcDbRegAppTableRecord
  2
AcDbBlockRepETag
 70
     0
  0
APPID
  5
88
330
9
100
AcDbSymbolTableRecord
100
AcDbRegAppTableRecord
  2
AcDbDynamicBlockGUID
 70
     0
  0
APPID
  5
89
330
9
100
AcDbSymbolTableRecord
100
AcDbRegAppTableRecord
  2
ACAD_DSTYLE_DIMJOGGED_JOGANGLE_SYMBOL
 70
     0
  0
APPID
  5
98
330
9
100
AcDbSymbolTableRecord
100
AcDbRegAppTableRecord
  2
AcAecLayerStandard
 70
     0
  0
APPID
  5
1DF
330
9
100
AcDbSymbolTableRecord
100
AcDbRegAppTableRecord
  2
ACAD_DIMASSOC_CALC_DIMLFAC
 70
     0
  0
APPID
  5
1E0
330
9
100
AcDbSymbolTableRecord
100
AcDbRegAppTableRecord
  2
ACAD_DIMASSOC_DIMLFAC
 70
     0
  0
APPID
  5
1E1
330
9
100
AcDbSymbolTableRecord
100
AcDbRegAppTableRecord
  2
ACAD_DIMASSOC_OVERRIDDEN_DIMLFAC
 70
     0
  0
APPID
  5
BC0
330
9
100
AcDbSymbolTableRecord
100
AcDbRegAppTableRecord
  2
ACAD_NAV_VCDISPLAY
 70
     0
  0
APPID
  5
EE5
330
9
100
AcDbSymbolTableRecord
100
AcDbRegAppTableRecord
  2
ACAD_MLEADERVER
 70
     0
  0
APPID
  5
EEC
330
9
100
AcDbSymbolTableRecord
100
AcDbRegAppTableRecord
  2
ACAD_DSTYLE_DIMARC_LENGTH_SYMBOL
 70
     0
  0
APPID
  5
EED
330
9
100
AcDbSymbolTableRecord
100
AcDbRegAppTableRecord
  2
ACAD_DSTYLE_DIMEXT_LENGTH
 70
     0
  0
APPID
  5
EEE
330
9
100
AcDbSymbolTableRecord
100
AcDbRegAppTableRecord
  2
ACAD_DSTYLE_DIM_LINETYPE
 70
     0
  0
APPID
  5
EEF
330
9
100
AcDbSymbolTableRecord
100
AcDbRegAppTableRecord
  2
ACAD_DSTYLE_DIM_EXT1_LINETYPE
 70
     0
  0
APPID
  5
EF0
330
9
100
AcDbSymbolTableRecord
100
AcDbRegAppTableRecord
  2
ACAD_DSTYLE_DIM_EXT2_LINETYPE
 70
     0
  0
ENDTAB
  0
TABLE
  2
DIMSTYLE
  5
A
330
0
100
AcDbSymbolTable
 70
     5
100
AcDbDimStyleTable
 71
     1
340
7D
  0
DIMSTYLE
105
58
330
A
100
AcDbSymbolTableRecord
100
AcDbDimStyleTableRecord
  2
Standard
 70
     0
340
55
  0
DIMSTYLE
105
59
330
A
100
AcDbSymbolTableRecord
100
AcDbDimStyleTableRecord
  2
Annotative
 70
     0
340
55
1001
AcadAnnotative
1000
AnnotativeData
1002
{
1070
     1
1070
     1
1002
}
  0
DIMSTYLE
105
7D
102
{ACAD_REACTORS
330
209
330
347
330
372
330
264
330
3CA
330
3D9
102
}
330
A
100
AcDbSymbolTableRecord
100
AcDbDimStyleTableRecord
  2
設計
 70
     0
 41
0.001
 42
0.625
 43
6.0
 44
1.25
 73
     0
 74
     0
 77
     1
 78
     9
 79
     1
140
4.0
141
0.0
143
0.03937007874016
147
0.625
171
     3
172
     1
176
   256
177
   256
178
   256
179
     2
271
     2
272
     2
274
     3
283
     0
284
     8
340
55
341
7E
342
7E
371
     9
372
     9
1001
ACAD_DSTYLE_DIMARC_LENGTH_SYMBOL
1070
   379
1070
     1
1001
ACAD_DSTYLE_DIMEXT_LENGTH
1070
   378
1040
1.25
1001
ACAD_DSTYLE_DIMJOGGED_JOGANGLE_SYMBOL
1070
   384
1040
1.570796326794896
1001
ACAD_DSTYLE_DIM_LINETYPE
1070
   380
1005
5B
1001
ACAD_DSTYLE_DIM_EXT1_LINETYPE
1070
   381
1005
5B
1001
ACAD_DSTYLE_DIM_EXT2_LINETYPE
1070
   382
1005
5B
  0
DIMSTYLE
105
8A
330
A
100
AcDbSymbolTableRecord
100
AcDbDimStyleTableRecord
  2
設計$2
 70
     0
 41
2.0
 42
0.625
 43
6.0
 44
1.25
 73
     0
 74
     0
 77
     1
 78
     9
 79
     1
140
4.0
141
0.0
143
0.03937007874016
147
0.625
171
     3
172
     1
176
   256
177
   256
178
   256
179
     2
271
     2
272
     2
274
     3
283
     0
284
     8
340
55
341
7E
342
8B
371
     9
372
     9
1001
ACAD_DSTYLE_DIMEXT_LENGTH
1070
   378
1040
1.25
1001
ACAD_DSTYLE_DIMJOGGED_JOGANGLE_SYMBOL
1070
   384
1040
1.570796326794896
1001
ACAD_DSTYLE_DIM_LINETYPE
1070
   380
1005
5B
1001
ACAD_DSTYLE_DIM_EXT1_LINETYPE
1070
   381
1005
5B
1001
ACAD_DSTYLE_DIM_EXT2_LINETYPE
1070
   382
1005
5B
  0
DIMSTYLE
105
92
102
{ACAD_REACTORS
330
24C
330
258
102
}
330
A
100
AcDbSymbolTableRecord
100
AcDbDimStyleTableRecord
  2
設計$3
 70
     0
 41
0.001
 42
0.625
 43
6.0
 44
1.25
 73
     0
 74
     0
 77
     1
 78
     9
 79
     1
140
4.0
141
0.0
143
0.03937007874016
147
0.625
171
     3
172
     1
176
   256
177
   256
178
   256
179
     2
271
     2
272
     2
274
     3
283
     0
284
     8
289
     1
340
55
341
7E
342
7E
371
     9
372
     9
1001
ACAD_DSTYLE_DIMARC_LENGTH_SYMBOL
1070
   379
1070
     1
1001
ACAD_DSTYLE_DIMEXT_LENGTH
1070
   378
1040
1.25
1001
ACAD_DSTYLE_DIMJOGGED_JOGANGLE_SYMBOL
1070
   384
1040
1.570796326794896
1001
ACAD_DSTYLE_DIM_LINETYPE
1070
   380
1005
5B
1001
ACAD_DSTYLE_DIM_EXT1_LINETYPE
1070
   381
1005
5B
1001
ACAD_DSTYLE_DIM_EXT2_LINETYPE
1070
   382
1005
5B
  0
ENDTAB
  0
TABLE
  2
BLOCK_RECORD
  5
1
330
0
100
AcDbSymbolTable
 70
    72
  0
BLOCK_RECORD
  5
70
102
{ACAD_XDICTIONARY
360
1C7
102
}
330
1
100
AcDbSymbolTableRecord
100
AcDbBlockTableRecord
  2
*Model_Space
340
73
  0
BLOCK_RECORD
  5
6C
330
1
100
AcDbSymbolTableRecord
100
AcDbBlockTableRecord
  2
*Paper_Space
340
6F
  0
BLOCK_RECORD
  5
7E
102
{ACAD_XDICTIONARY
360
7F
102
}
330
1
100
AcDbSymbolTableRecord
100
AcDbBlockTableRecord
  2
30a
340
0
102
{BLKREFS
331
E85
331
E86
331
D39
331
D3C
331
D4D
331
D4E
331
D55
331
D56
331
D65
331
D66
331
D6F
331
D72
331
D7D
331
D80
331
D8B
331
D8E
331
E18
331
E19
331
E31
331
E32
331
E39
331
E3A
331
E4F
331
E50
331
E7C
331
E7D
331
DAA
331
DAB
331
DB2
331
DB3
331
DEC
331
DED
331
DF5
331
DF6
331
CA6
331
CA9
331
C5F
331
C60
331
C68
331
C69
331
C71
331
C72
331
C7A
331
C7B
331
C8D
331
C90
331
C9A
331
C9D
102
}
1001
AcDbDynamicBlockGUID
1000
{E445BF60-1C23-4604-BA8E-FEFD153DCEFA}
1001
AcDbBlockRepETag
1070
     1
1071
        6
1001
ACAD
1000
DesignCenter Data
1002
{
1070
     1
1070
     4
1002
}
  0
BLOCK_RECORD
  5
8B
102
{ACAD_XDICTIONARY
360
8C
102
}
330
1
100
AcDbSymbolTableRecord
100
AcDbBlockTableRecord
  2
_Open30
340
0
102
{BLKREFS
331
D18
331
D19
331
D23
331
D24
331
D2E
331
D2F
331
CCB
331
CCC
331
CD6
331
CD7
331
CE1
331
CE2
331
CEC
331
CED
331
CF7
331
CF8
331
D02
331
D03
331
D0D
331
D0E
102
}
1001
AcDbDynamicBlockGUID
1000
{56C9FA7B-EA39-46F3-9165-99DC67408D5C}
1001
AcDbBlockRepETag
1070
     1
1071
        3
  0
BLOCK_RECORD
  5
32D
102
{ACAD_XDICTIONARY
360
32E
102
}
330
1
100
AcDbSymbolTableRecord
100
AcDbBlockTableRecord
  2
dot
340
0
1001
AcDbDynamicBlockGUID
1000
{36EB7901-902B-4666-91DF-A551D681E07E}
1001
AcDbBlockRepETag
1070
     1
1071
        2
1001
ACAD
1000
DesignCenter Data
1002
{
1070
     1
1070
     4
1002
}
  0
BLOCK_RECORD
  5
445
330
1
100
AcDbSymbolTableRecord
100
AcDbBlockTableRecord
  2
*D38
340
0
  0
BLOCK_RECORD
  5
451
330
1
100
AcDbSymbolTableRecord
100
AcDbBlockTableRecord
  2
*D39
340
0
  0
BLOCK_RECORD
  5
45D
330
1
100
AcDbSymbolTableRecord
100
AcDbBlockTableRecord
  2
*D40
340
0
  0
BLOCK_RECORD
  5
469
330
1
100
AcDbSymbolTableRecord
100
AcDbBlockTableRecord
  2
*D41
340
0
  0
BLOCK_RECORD
  5
475
330
1
100
AcDbSymbolTableRecord
100
AcDbBlockTableRecord
  2
*D42
340
0
  0
BLOCK_RECORD
  5
481
330
1
100
AcDbSymbolTableRecord
100
AcDbBlockTableRecord
  2
*D43
340
0
  0
BLOCK_RECORD
  5
491
330
1
100
AcDbSymbolTableRecord
100
AcDbBlockTableRecord
  2
*D44
340
0
  0
BLOCK_RECORD
  5
4A1
330
1
100
AcDbSymbolTableRecord
100
AcDbBlockTableRecord
  2
*D45
340
0
  0
BLOCK_RECORD
  5
4B1
330
1
100
AcDbSymbolTableRecord
100
AcDbBlockTableRecord
  2
*D46
340
0
  0
BLOCK_RECORD
  5
4BC
330
1
100
AcDbSymbolTableRecord
100
AcDbBlockTableRecord
  2
*D47
340
0
  0
BLOCK_RECORD
  5
4C7
330
1
100
AcDbSymbolTableRecord
100
AcDbBlockTableRecord
  2
*D48
340
0
  0
BLOCK_RECORD
  5
4D2
330
1
100
AcDbSymbolTableRecord
100
AcDbBlockTableRecord
  2
*D49
340
0
  0
BLOCK_RECORD
  5
4E0
330
1
100
AcDbSymbolTableRecord
100
AcDbBlockTableRecord
  2
*D50
340
0
  0
BLOCK_RECORD
  5
4EE
330
1
100
AcDbSymbolTableRecord
100
AcDbBlockTableRecord
  2
*D51
340
0
  0
BLOCK_RECORD
  5
4FE
330
1
100
AcDbSymbolTableRecord
100
AcDbBlockTableRecord
  2
*D52
340
0
  0
BLOCK_RECORD
  5
50C
330
1
100
AcDbSymbolTableRecord
100
AcDbBlockTableRecord
  2
*D53
340
0
  0
BLOCK_RECORD
  5
51C
330
1
100
AcDbSymbolTableRecord
100
AcDbBlockTableRecord
  2
*D54
340
0
  0
BLOCK_RECORD
  5
52A
330
1
100
AcDbSymbolTableRecord
100
AcDbBlockTableRecord
  2
*D55
340
0
  0
BLOCK_RECORD
  5
538
330
1
100
AcDbSymbolTableRecord
100
AcDbBlockTableRecord
  2
*D56
340
0
  0
BLOCK_RECORD
  5
546
330
1
100
AcDbSymbolTableRecord
100
AcDbBlockTableRecord
  2
*D57
340
0
  0
BLOCK_RECORD
  5
554
330
1
100
AcDbSymbolTableRecord
100
AcDbBlockTableRecord
  2
*D58
340
0
  0
BLOCK_RECORD
  5
564
330
1
100
AcDbSymbolTableRecord
100
AcDbBlockTableRecord
  2
*D59
340
0
  0
BLOCK_RECORD
  5
574
330
1
100
AcDbSymbolTableRecord
100
AcDbBlockTableRecord
  2
*D60
340
0
  0
BLOCK_RECORD
  5
580
330
1
100
AcDbSymbolTableRecord
100
AcDbBlockTableRecord
  2
*D61
340
0
  0
BLOCK_RECORD
  5
58A
330
1
100
AcDbSymbolTableRecord
100
AcDbBlockTableRecord
  2
*D62
340
0
  0
BLOCK_RECORD
  5
596
330
1
100
AcDbSymbolTableRecord
100
AcDbBlockTableRecord
  2
*D63
340
0
  0
BLOCK_RECORD
  5
5A0
330
1
100
AcDbSymbolTableRecord
100
AcDbBlockTableRecord
  2
*D64
340
0
  0
BLOCK_RECORD
  5
5AC
330
1
100
AcDbSymbolTableRecord
100
AcDbBlockTableRecord
  2
*D65
340
0
  0
BLOCK_RECORD
  5
5BD
330
1
100
AcDbSymbolTableRecord
100
AcDbBlockTableRecord
  2
*D66
340
0
  0
BLOCK_RECORD
  5
5CE
330
1
100
AcDbSymbolTableRecord
100
AcDbBlockTableRecord
  2
*D67
340
0
  0
BLOCK_RECORD
  5
5DF
330
1
100
AcDbSymbolTableRecord
100
AcDbBlockTableRecord
  2
*D68
340
0
  0
BLOCK_RECORD
  5
5EB
330
1
100
AcDbSymbolTableRecord
100
AcDbBlockTableRecord
  2
*D69
340
0
  0
BLOCK_RECORD
  5
5F7
330
1
100
AcDbSymbolTableRecord
100
AcDbBlockTableRecord
  2
*D70
340
0
  0
BLOCK_RECORD
  5
603
330
1
100
AcDbSymbolTableRecord
100
AcDbBlockTableRecord
  2
*D71
340
0
  0
ENDTAB
  0
ENDSEC
  0
SECTION
  2
BLOCKS
  0
BLOCK
  5
71
330
70
100
AcDbEntity
  8
0
100
AcDbBlockBegin
  2
*Model_Space
 70
     0
 10
0.0
 20
0.0
 30
0.0
  3
*Model_Space
  1

  0
ENDBLK
  5
72
330
70
100
AcDbEntity
  8
0
100
AcDbBlockEnd
  0
BLOCK
  5
6D
330
6C
100
AcDbEntity
 67
     1
  8
0
100
AcDbBlockBegin
  2
*Paper_Space
 70
     0
 10
0.0
 20
0.0
 30
0.0
  3
*Paper_Space
  1

  0
ENDBLK
  5
6E
330
6C
100
AcDbEntity
 67
     1
  8
0
100
AcDbBlockEnd
  0
BLOCK
  5
81
330
7E
100
AcDbEntity
  8
0
390
82
100
AcDbBlockBegin
  2
30a
 70
     0
 10
0.0
 20
0.0
 30
0.0
  3
30a
  1

  0
LINE
  5
83
330
7E
100
AcDbEntity
  8
0
  6
ByBlock
 62
     0
370
    -2
390
82
100
AcDbLine
 10
0.0000000000002331
 20
0.0000000000000381
 30
0.0
 11
-3500.0
 21
0.0000000000002524
 31
0.0
1001
AcDbBlockRepETag
1070
     1
1071
        3
1005
83
  0
LINE
  5
85
330
7E
100
AcDbEntity
  8
0
  6
ByBlock
 62
     0
370
    -2
390
82
100
AcDbLine
 10
0.0000000000003695
 20
0.0000000000000076
 30
0.0
 11
-1931.851652578136
 21
517.6380902050417
 31
0.0
1001
AcDbBlockRepETag
1070
     1
1071
        4
1005
85
  0
LINE
  5
86
330
7E
100
AcDbEntity
  8
0
  6
ByBlock
 62
     0
370
    -2
390
82
100
AcDbLine
 10
0.0000000000003695
 20
0.0000000000000076
 30
0.0
 11
-1931.851652578136
 21
-517.6380902050413
 31
0.0
1001
AcDbBlockRepETag
1070
     1
1071
        5
1005
86
  0
ENDBLK
  5
87
330
7E
100
AcDbEntity
  8
0
390
82
100
AcDbBlockEnd
  0
BLOCK
  5
8D
330
8B
100
AcDbEntity
  8
0
100
AcDbBlockBegin
  2
_Open30
 70
     0
 10
0.0
 20
0.0
 30
0.0
  3
_Open30
  1

  0
LINE
  5
8E
330
8B
100
AcDbEntity
  8
0
  6
ByBlock
 62
     0
370
    -2
390
82
100
AcDbLine
 10
-1.0
 20
0.26794919
 30
0.0
 11
0.0
 21
0.0
 31
0.0
1001
AcDbBlockRepETag
1070
     1
1071
        0
1005
8E
  0
LINE
  5
8F
330
8B
100
AcDbEntity
  8
0
  6
ByBlock
 62
     0
370
    -2
390
82
100
AcDbLine
 10
0.0
 20
0.0
 30
0.0
 11
-1.0
 21
-0.26794919
 31
0.0
1001
AcDbBlockRepETag
1070
     1
1071
        1
1005
8F
  0
LINE
  5
90
330
8B
100
AcDbEntity
  8
0
  6
ByBlock
 62
     0
370
    -2
390
82
100
AcDbLine
 10
0.0
 20
0.0
 30
0.0
 11
-1.0
 21
0.0
 31
0.0
1001
AcDbBlockRepETag
1070
     1
1071
        2
1005
90
  0
ENDBLK
  5
91
330
8B
100
AcDbEntity
  8
0
100
AcDbBlockEnd
  0
BLOCK
  5
32F
330
32D
100
AcDbEntity
  8
0
100
AcDbBlockBegin
  2
dot
 70
     0
 10
0.0
 20
0.0
 30
0.0
  3
dot
  1

  0
HATCH
  5
330
330
32D
100
AcDbEntity
  8
0
100
AcDbHatch
 10
0.0
 20
0.0
 30
0.0
210
0.0
220
0.0
230
1.0
  2
SOLID
 70
     1
 71
     1
 91
        1
 92
        1
 93
        1
 72
     2
 10
0.0
 20
0.0
 40
250.0
 50
0.0
 51
360.0
 73
     1
 97
        1
330
331
 75
     0
 76
     1
 98
        1
 10
0.0
 20
0.0
450
        0
451
        0
460
0.0
461
0.0
452
        1
462
1.0
453
        2
463
0.0
 63
     5
421
      255
463
1.0
 63
     7
421
 16777215
470
LINEAR
1001
ACAD
1010
0.0
1020
0.0
1030
0.0
1001
AcDbBlockRepETag
1070
     1
1071
        0
1005
330
  0
CIRCLE
  5
331
102
{ACAD_REACTORS
330
330
102
}
330
32D
100
AcDbEntity
  8
0
100
AcDbCircle
 10
0.0
 20
0.0
 30
0.0
 40
250.0
1001
AcDbBlockRepETag
1070
     1
1071
        1
1005
331
  0
ENDBLK
  5
332
330
32D
100
AcDbEntity
  8
0
100
AcDbBlockEnd
  0
BLOCK
  5
446
330
445
100
AcDbEntity
  8
0
100
AcDbBlockBegin
  2
*D38
 70
     1
 10
0.0
 20
0.0
 30
0.0
  3
*D38
  1

  0
LINE
  5
C5C
330
445
100
AcDbEntity
  8
Defpoints
  6
ByBlock
440
 16777216
370
     9
100
AcDbLine
 10
954.6817857203414
 20
822.7594932098661
 30
0.0
 11
954.6817857203414
 21
1096.698372177777
 31
0.0
  0
LINE
  5
C5D
330
445
100
AcDbEntity
  8
Defpoints
  6
ByBlock
440
 16777216
370
     9
100
AcDbLine
 10
1073.184812106072
 20
1021.499064325761
 30
0.0
 11
1073.184812106072
 21
1096.698372177777
 31
0.0
  0
LINE
  5
C5E
330
445
100
AcDbEntity
  8
Defpoints
  6
ByBlock
440
 16777216
370
     9
100
AcDbLine
 10
954.6827857203414
 20
1095.448372177777
 30
0.0
 11
1073.183812106072
 21
1095.448372177777
 31
0.0
  0
INSERT
  5
C5F
330
445
100
AcDbEntity
  8
Defpoints
440
 16777216
370
     9
100
AcDbBlockReference
  2
30a
 10
954.6817857203414
 20
1095.448372177777
 30
0.0
 41
0.001
 42
0.001
 43
0.001
 50
180.0
  0
INSERT
  5
C60
330
445
100
AcDbEntity
  8
Defpoints
440
 16777216
370
     9
100
AcDbBlockReference
  2
30a
 10
1073.184812106072
 20
1095.448372177777
 30
0.0
 41
0.001
 42
0.001
 43
0.001
  0
MTEXT
  5
C61
330
445
100
AcDbEntity
  8
Defpoints
440
 16777216
100
AcDbMText
 10
1013.933298913207
 20
1098.073372177777
 30
0.0
 40
4.0
 41
0.0
 71
     5
 72
     1
  1
711.02
 73
     1
 44
1.0
  0
POINT
  5
C62
330
445
100
AcDbEntity
  8
Defpoints
 62
     0
440
 16777216
100
AcDbPoint
 10
954.6817857203414
 20
822.1344932098659
 30
0.0
  0
POINT
  5
C63
330
445
100
AcDbEntity
  8
Defpoints
 62
     0
440
 16777216
100
AcDbPoint
 10
1073.184812106072
 20
1020.87406432576
 30
0.0
  0
POINT
  5
C64
330
445
100
AcDbEntity
  8
Defpoints
 62
     0
440
 16777216
100
AcDbPoint
 10
1073.184812106072
 20
1095.448372177777
 30
0.0
  0
ENDBLK
  5
447
330
445
100
AcDbEntity
  8
0
100
AcDbBlockEnd
  0
BLOCK
  5
452
330
451
100
AcDbEntity
  8
0
100
AcDbBlockBegin
  2
*D39
 70
     1
 10
0.0
 20
0.0
 30
0.0
  3
*D39
  1

  0
LINE
  5
C65
330
451
100
AcDbEntity
  8
Defpoints
  6
ByBlock
440
 16777216
370
     9
100
AcDbLine
 10
1073.184812106072
 20
1021.499064325761
 30
0.0
 11
1073.184812106072
 21
1096.698372177777
 31
0.0
  0
LINE
  5
C66
330
451
100
AcDbEntity
  8
Defpoints
  6
ByBlock
440
 16777216
370
     9
100
AcDbLine
 10
2041.186751211383
 20
1025.92677069536
 30
0.0
 11
2041.186751211383
 21
1096.698372177777
 31
0.0
  0
LINE
  5
C67
330
451
100
AcDbEntity
  8
Defpoints
  6
ByBlock
440
 16777216
370
     9
100
AcDbLine
 10
1073.185812106072
 20
1095.448372177777
 30
0.0
 11
2041.185751211383
 21
1095.448372177777
 31
0.0
  0
INSERT
  5
C68
330
451
100
AcDbEntity
  8
Defpoints
440
 16777216
370
     9
100
AcDbBlockReference
  2
30a
 10
1073.184812106072
 20
1095.448372177777
 30
0.0
 41
0.001
 42
0.001
 43
0.001
 50
180.0
  0
INSERT
  5
C69
330
451
100
AcDbEntity
  8
Defpoints
440
 16777216
370
     9
100
AcDbBlockReference
  2
30a
 10
2041.186751211383
 20
1095.448372177777
 30
0.0
 41
0.001
 42
0.001
 43
0.001
  0
MTEXT
  5
C6A
330
451
100
AcDbEntity
  8
Defpoints
440
 16777216
100
AcDbMText
 10
1557.185781658727
 20
1098.073372177777
 30
0.0
 40
4.0
 41
0.0
 71
     5
 72
     1
  1
5808.01
 73
     1
 44
1.0
  0
POINT
  5
C6B
330
451
100
AcDbEntity
  8
Defpoints
 62
     0
440
 16777216
100
AcDbPoint
 10
1073.184812106072
 20
1020.87406432576
 30
0.0
  0
POINT
  5
C6C
330
451
100
AcDbEntity
  8
Defpoints
 62
     0
440
 16777216
100
AcDbPoint
 10
2041.186751211383
 20
1025.301770695359
 30
0.0
  0
POINT
  5
C6D
330
451
100
AcDbEntity
  8
Defpoints
 62
     0
440
 16777216
100
AcDbPoint
 10
2041.186751211383
 20
1095.448372177777
 30
0.0
  0
ENDBLK
  5
453
330
451
100
AcDbEntity
  8
0
100
AcDbBlockEnd
  0
BLOCK
  5
45E
330
45D
100
AcDbEntity
  8
0
100
AcDbBlockBegin
  2
*D40
 70
     1
 10
0.0
 20
0.0
 30
0.0
  3
*D40
  1

  0
LINE
  5
C6E
330
45D
100
AcDbEntity
  8
Defpoints
  6
ByBlock
440
 16777216
370
     9
100
AcDbLine
 10
2041.186751211384
 20
1025.92677069536
 30
0.0
 11
2041.186751211384
 21
1096.698372177777
 31
0.0
  0
LINE
  5
C6F
330
45D
100
AcDbEntity
  8
Defpoints
  6
ByBlock
440
 16777216
370
     9
100
AcDbLine
 10
2159.686990591532
 20
822.7594932098662
 30
0.0
 11
2159.686990591532
 21
1096.698372177777
 31
0.0
  0
LINE
  5
C70
330
45D
100
AcDbEntity
  8
Defpoints
  6
ByBlock
440
 16777216
370
     9
100
AcDbLine
 10
2041.187751211384
 20
1095.448372177777
 30
0.0
 11
2159.685990591531
 21
1095.448372177777
 31
0.0
  0
INSERT
  5
C71
330
45D
100
AcDbEntity
  8
Defpoints
440
 16777216
370
     9
100
AcDbBlockReference
  2
30a
 10
2041.186751211384
 20
1095.448372177777
 30
0.0
 41
0.001
 42
0.001
 43
0.001
 50
180.0
  0
INSERT
  5
C72
330
45D
100
AcDbEntity
  8
Defpoints
440
 16777216
370
     9
100
AcDbBlockReference
  2
30a
 10
2159.686990591532
 20
1095.448372177777
 30
0.0
 41
0.001
 42
0.001
 43
0.001
  0
MTEXT
  5
C73
330
45D
100
AcDbEntity
  8
Defpoints
440
 16777216
100
AcDbMText
 10
2100.436870901457
 20
1098.073372177777
 30
0.0
 40
4.0
 41
0.0
 71
     5
 72
     1
  1
711
 73
     1
 44
1.0
  0
POINT
  5
C74
330
45D
100
AcDbEntity
  8
Defpoints
 62
     0
440
 16777216
100
AcDbPoint
 10
2041.186751211384
 20
1025.301770695359
 30
0.0
  0
POINT
  5
C75
330
45D
100
AcDbEntity
  8
Defpoints
 62
     0
440
 16777216
100
AcDbPoint
 10
2159.686990591532
 20
822.1344932098663
 30
0.0
  0
POINT
  5
C76
330
45D
100
AcDbEntity
  8
Defpoints
 62
     0
440
 16777216
100
AcDbPoint
 10
2159.686990591532
 20
1095.448372177777
 30
0.0
  0
ENDBLK
  5
45F
330
45D
100
AcDbEntity
  8
0
100
AcDbBlockEnd
  0
BLOCK
  5
46A
330
469
100
AcDbEntity
  8
0
100
AcDbBlockBegin
  2
*D41
 70
     1
 10
0.0
 20
0.0
 30
0.0
  3
*D41
  1

  0
LINE
  5
C77
330
469
100
AcDbEntity
  8
Defpoints
  6
ByBlock
440
 16777216
370
     9
100
AcDbLine
 10
2110.048479098037
 20
652.5953358403584
 30
0.0
 11
2110.048479098037
 21
573.9003369338396
 31
0.0
  0
LINE
  5
C78
330
469
100
AcDbEntity
  8
Defpoints
  6
ByBlock
440
 16777216
370
     9
100
AcDbLine
 10
2181.048621325802
 20
656.5091626805517
 30
0.0
 11
2181.048621325802
 21
573.9003369338396
 31
0.0
  0
LINE
  5
C79
330
469
100
AcDbEntity
  8
Defpoints
  6
ByBlock
440
 16777216
370
     9
100
AcDbLine
 10
2110.049479098037
 20
575.1503369338396
 30
0.0
 11
2181.047621325802
 21
575.1503369338396
 31
0.0
  0
INSERT
  5
C7A
330
469
100
AcDbEntity
  8
Defpoints
440
 16777216
370
     9
100
AcDbBlockReference
  2
30a
 10
2110.048479098037
 20
575.1503369338396
 30
0.0
 41
0.001
 42
0.001
 43
0.001
 50
180.0
  0
INSERT
  5
C7B
330
469
100
AcDbEntity
  8
Defpoints
440
 16777216
370
     9
100
AcDbBlockReference
  2
30a
 10
2181.048621325802
 20
575.1503369338396
 30
0.0
 41
0.001
 42
0.001
 43
0.001
  0
MTEXT
  5
C7C
330
469
100
AcDbEntity
  8
Defpoints
440
 16777216
100
AcDbMText
 10
2145.54855021192
 20
577.7753369338396
 30
0.0
 40
4.0
 41
0.0
 71
     5
 72
     1
  1
426
 73
     1
 44
1.0
  0
POINT
  5
C7D
330
469
100
AcDbEntity
  8
Defpoints
 62
     0
440
 16777216
100
AcDbPoint
 10
2110.048479098037
 20
653.2203358403584
 30
0.0
  0
POINT
  5
C7E
330
469
100
AcDbEntity
  8
Defpoints
 62
     0
440
 16777216
100
AcDbPoint
 10
2181.048621325802
 20
657.1341626805518
 30
0.0
  0
POINT
  5
C7F
330
469
100
AcDbEntity
  8
Defpoints
 62
     0
440
 16777216
100
AcDbPoint
 10
2181.048621325802
 20
575.1503369338396
 30
0.0
  0
ENDBLK
  5
46B
330
469
100
AcDbEntity
  8
0
100
AcDbBlockEnd
  0
BLOCK
  5
476
330
475
100
AcDbEntity
  8
0
100
AcDbBlockBegin
  2
*D42
 70
     1
 10
0.0
 20
0.0
 30
0.0
  3
*D42
  1

  0
LINE
  5
E4C
330
475
100
AcDbEntity
  8
Size
  6
ByBlock
440
 16777216
370
     9
100
AcDbLine
 10
815.7566201198109
 20
662.1341726965916
 30
0.0
 11
728.5289605604543
 21
662.1341726965916
 31
0.0
  0
LINE
  5
E4D
330
475
100
AcDbEntity
  8
Size
  6
ByBlock
440
 16777216
370
     9
100
AcDbLine
 10
815.7566201198109
 20
982.1348137231412
 30
0.0
 11
728.5289605604541
 21
982.1348137231412
 31
0.0
  0
LINE
  5
E4E
330
475
100
AcDbEntity
  8
Size
  6
ByBlock
440
 16777216
370
     9
100
AcDbLine
 10
736.0289605604542
 20
662.1401726965915
 30
0.0
 11
736.0289605604541
 21
982.1288137231412
 31
0.0
  0
INSERT
  5
E4F
330
475
100
AcDbEntity
  8
Size
440
 16777216
370
     9
100
AcDbBlockReference
  2
30a
 10
736.0289605604542
 20
662.1341726965916
 30
0.0
 41
0.006
 42
0.006
 43
0.006
 50
270.0
  0
INSERT
  5
E50
330
475
100
AcDbEntity
  8
Size
440
 16777216
370
     9
100
AcDbBlockReference
  2
30a
 10
736.0289605604541
 20
982.1348137231412
 30
0.0
 41
0.006
 42
0.006
 43
0.006
 50
90.0
  0
MTEXT
  5
E51
330
475
100
AcDbEntity
  8
Size
440
 16777216
100
AcDbMText
 10
720.2789605604542
 20
822.1344932098661
 30
0.0
 40
24.0
 41
0.0
 71
     5
 72
     1
  1
%%c320
 11
0.0000000000000001
 21
1.0
 31
0.0
 73
     1
 44
1.0
  0
POINT
  5
E52
330
475
100
AcDbEntity
  8
Defpoints
 62
     0
440
 16777216
100
AcDbPoint
 10
819.5066201198109
 20
662.1341726965916
 30
0.0
  0
POINT
  5
E53
330
475
100
AcDbEntity
  8
Defpoints
 62
     0
440
 16777216
100
AcDbPoint
 10
819.5066201198109
 20
982.1348137231412
 30
0.0
  0
POINT
  5
E54
330
475
100
AcDbEntity
  8
Defpoints
 62
     0
440
 16777216
100
AcDbPoint
 10
736.0289605604541
 20
982.1348137231412
 30
0.0
  0
ENDBLK
  5
477
330
475
100
AcDbEntity
  8
0
100
AcDbBlockEnd
  0
BLOCK
  5
482
330
481
100
AcDbEntity
  8
0
100
AcDbBlockBegin
  2
*D43
 70
     1
 10
0.0
 20
0.0
 30
0.0
  3
*D43
  1

  0
LINE
  5
C89
330
481
100
AcDbEntity
  8
Defpoints
  6
ByBlock
440
 16777216
370
     9
100
AcDbLine
 10
932.0562344308376
 20
808.1344651649549
 30
0.0
 11
752.2049361198139
 21
808.1344651649549
 31
0.0
  0
LINE
  5
C8A
330
481
100
AcDbEntity
  8
Defpoints
  6
ByBlock
440
 16777216
370
     9
100
AcDbLine
 10
932.0562344308376
 20
836.134521254778
 30
0.0
 11
752.2049361198139
 21
836.134521254778
 31
0.0
  0
LINE
  5
C8B
330
481
100
AcDbEntity
  8
Defpoints
  6
ByBlock
440
 16777216
370
     9
100
AcDbLine
 10
753.454936119814
 20
808.1354651649549
 30
0.0
 11
753.454936119814
 21
836.133521254778
 31
0.0
  0
MTEXT
  5
C8C
330
481
100
AcDbEntity
  8
Defpoints
440
 16777216
100
AcDbMText
 10
750.8299361198113
 20
828.7594943459328
 30
0.0
 40
4.0
 41
0.0
 71
     5
 72
     1
  1
W168山14軸直
 11
0.0000000000000001
 21
1.0
 31
0.0
 73
     1
 44
1.0
  0
INSERT
  5
C8D
330
481
100
AcDbEntity
  8
Defpoints
440
 16777216
370
     9
100
AcDbBlockReference
  2
30a
 10
753.454936119814
 20
808.1344651649549
 30
0.0
 41
0.001
 42
0.001
 43
0.001
 50
90.0
  0
LINE
  5
C8E
330
481
100
AcDbEntity
  8
Defpoints
440
 16777216
370
     9
100
AcDbLine
 10
753.454936119814
 20
808.133465164955
 30
0.0
 11
753.454936119814
 21
808.1324651649548
 31
0.0
  0
LINE
  5
C8F
330
481
100
AcDbEntity
  8
Defpoints
  6
ByBlock
440
 16777216
370
     9
100
AcDbLine
 10
753.454936119814
 20
808.1344651649549
 30
0.0
 11
753.454936119814
 21
808.1354651649549
 31
0.0
  0
INSERT
  5
C90
330
481
100
AcDbEntity
  8
Defpoints
440
 16777216
370
     9
100
AcDbBlockReference
  2
30a
 10
753.454936119814
 20
836.134521254778
 30
0.0
 41
0.001
 42
0.001
 43
0.001
 50
270.0
  0
LINE
  5
C91
330
481
100
AcDbEntity
  8
Defpoints
440
 16777216
370
     9
100
AcDbLine
 10
753.454936119814
 20
836.1355212547779
 30
0.0
 11
753.454936119814
 21
836.1365212547779
 31
0.0
  0
LINE
  5
C92
330
481
100
AcDbEntity
  8
Defpoints
  6
ByBlock
440
 16777216
370
     9
100
AcDbLine
 10
753.454936119814
 20
836.134521254778
 30
0.0
 11
753.454936119814
 21
836.133521254778
 31
0.0
  0
POINT
  5
C93
330
481
100
AcDbEntity
  8
Defpoints
 62
     0
440
 16777216
100
AcDbPoint
 10
932.6812344308377
 20
808.1344651649549
 30
0.0
  0
POINT
  5
C94
330
481
100
AcDbEntity
  8
Defpoints
 62
     0
440
 16777216
100
AcDbPoint
 10
932.6812344308377
 20
836.134521254778
 30
0.0
  0
POINT
  5
C95
330
481
100
AcDbEntity
  8
Defpoints
 62
     0
440
 16777216
100
AcDbPoint
 10
753.454936119814
 20
836.134521254778
 30
0.0
  0
ENDBLK
  5
483
330
481
100
AcDbEntity
  8
0
100
AcDbBlockEnd
  0
BLOCK
  5
492
330
491
100
AcDbEntity
  8
0
100
AcDbBlockBegin
  2
*D44
 70
     1
 10
0.0
 20
0.0
 30
0.0
  3
*D44
  1

  0
LINE
  5
C96
330
491
100
AcDbEntity
  8
Defpoints
  6
ByBlock
440
 16777216
370
     9
100
AcDbLine
 10
944.0923011130061
 20
898.1366944136535
 30
0.0
 11
877.0525059449136
 21
898.1366944136535
 31
0.0
  0
LINE
  5
C97
330
491
100
AcDbEntity
  8
Defpoints
  6
ByBlock
440
 16777216
370
     9
100
AcDbLine
 10
944.0567656882622
 20
926.1347015434949
 30
0.0
 11
877.0525059449136
 21
926.1347015434949
 31
0.0
  0
LINE
  5
C98
330
491
100
AcDbEntity
  8
Defpoints
  6
ByBlock
440
 16777216
370
     9
100
AcDbLine
 10
878.3025059449135
 20
898.1376944136535
 30
0.0
 11
878.3025059449135
 21
926.133701543495
 31
0.0
  0
MTEXT
  5
C99
330
491
100
AcDbEntity
  8
Defpoints
440
 16777216
100
AcDbMText
 10
875.6775059449108
 20
902.528635972966
 30
0.0
 40
4.0
 41
0.0
 71
     5
 72
     1
  1
W167.99山14軸直
 11
0.0000000000000001
 21
1.0
 31
0.0
 73
     1
 44
1.0
  0
INSERT
  5
C9A
330
491
100
AcDbEntity
  8
Defpoints
440
 16777216
370
     9
100
AcDbBlockReference
  2
30a
 10
878.3025059449135
 20
898.1366944136535
 30
0.0
 41
0.001
 42
0.001
 43
0.001
 50
90.0
  0
LINE
  5
C9B
330
491
100
AcDbEntity
  8
Defpoints
440
 16777216
370
     9
100
AcDbLine
 10
878.3025059449135
 20
898.1356944136534
 30
0.0
 11
878.3025059449135
 21
898.1346944136534
 31
0.0
  0
LINE
  5
C9C
330
491
100
AcDbEntity
  8
Defpoints
  6
ByBlock
440
 16777216
370
     9
100
AcDbLine
 10
878.3025059449135
 20
898.1366944136535
 30
0.0
 11
878.3025059449135
 21
898.1376944136535
 31
0.0
  0
INSERT
  5
C9D
330
491
100
AcDbEntity
  8
Defpoints
440
 16777216
370
     9
100
AcDbBlockReference
  2
30a
 10
878.3025059449135
 20
926.1347015434949
 30
0.0
 41
0.001
 42
0.001
 43
0.001
 50
270.0
  0
LINE
  5
C9E
330
491
100
AcDbEntity
  8
Defpoints
440
 16777216
370
     9
100
AcDbLine
 10
878.3025059449135
 20
926.1357015434949
 30
0.0
 11
878.3025059449135
 21
926.1367015434949
 31
0.0
  0
LINE
  5
C9F
330
491
100
AcDbEntity
  8
Defpoints
  6
ByBlock
440
 16777216
370
     9
100
AcDbLine
 10
878.3025059449135
 20
926.1347015434949
 30
0.0
 11
878.3025059449135
 21
926.133701543495
 31
0.0
  0
POINT
  5
CA0
330
491
100
AcDbEntity
  8
Defpoints
 62
     0
440
 16777216
100
AcDbPoint
 10
944.7173011130061
 20
898.1366944136535
 30
0.0
  0
POINT
  5
CA1
330
491
100
AcDbEntity
  8
Defpoints
 62
     0
440
 16777216
100
AcDbPoint
 10
944.6817656882622
 20
926.1347015434949
 30
0.0
  0
POINT
  5
CA2
330
491
100
AcDbEntity
  8
Defpoints
 62
     0
440
 16777216
100
AcDbPoint
 10
878.3025059449135
 20
926.1347015434949
 30
0.0
  0
ENDBLK
  5
493
330
491
100
AcDbEntity
  8
0
100
AcDbBlockEnd
  0
BLOCK
  5
4A2
330
4A1
100
AcDbEntity
  8
0
100
AcDbBlockBegin
  2
*D45
 70
     1
 10
0.0
 20
0.0
 30
0.0
  3
*D45
  1

  0
LINE
  5
CA3
330
4A1
100
AcDbEntity
  8
Defpoints
  6
ByBlock
440
 16777216
370
     9
100
AcDbLine
 10
958.9297035142445
 20
803.6344932098668
 30
0.0
 11
1015.792215514244
 21
803.6344932098668
 31
0.0
  0
LINE
  5
CA4
330
4A1
100
AcDbEntity
  8
Defpoints
  6
ByBlock
440
 16777216
370
     9
100
AcDbLine
 10
958.9296264107524
 20
840.6344956132659
 30
0.0
 11
1015.792215514244
 21
840.6344956132659
 31
0.0
  0
LINE
  5
CA5
330
4A1
100
AcDbEntity
  8
Defpoints
  6
ByBlock
440
 16777216
370
     9
100
AcDbLine
 10
1014.542215514244
 20
803.6354932098667
 30
0.0
 11
1014.542215514244
 21
840.633495613266
 31
0.0
  0
INSERT
  5
CA6
330
4A1
100
AcDbEntity
  8
Defpoints
440
 16777216
370
     9
100
AcDbBlockReference
  2
30a
 10
1014.542215514244
 20
803.6344932098668
 30
0.0
 41
0.001
 42
0.001
 43
0.001
 50
90.0
  0
LINE
  5
CA7
330
4A1
100
AcDbEntity
  8
Defpoints
440
 16777216
370
     9
100
AcDbLine
 10
1014.542215514244
 20
803.6334932098666
 30
0.0
 11
1014.542215514244
 21
803.6324932098667
 31
0.0
  0
LINE
  5
CA8
330
4A1
100
AcDbEntity
  8
Defpoints
  6
ByBlock
440
 16777216
370
     9
100
AcDbLine
 10
1014.542215514244
 20
803.6344932098668
 30
0.0
 11
1014.542215514244
 21
803.6354932098667
 31
0.0
  0
INSERT
  5
CA9
330
4A1
100
AcDbEntity
  8
Defpoints
440
 16777216
370
     9
100
AcDbBlockReference
  2
30a
 10
1014.542215514244
 20
840.6344956132659
 30
0.0
 41
0.001
 42
0.001
 43
0.001
 50
270.0
  0
LINE
  5
CAA
330
4A1
100
AcDbEntity
  8
Defpoints
440
 16777216
370
     9
100
AcDbLine
 10
1014.542215514244
 20
840.6354956132659
 30
0.0
 11
1014.542215514244
 21
840.6364956132659
 31
0.0
  0
LINE
  5
CAB
330
4A1
100
AcDbEntity
  8
Defpoints
  6
ByBlock
440
 16777216
370
     9
100
AcDbLine
 10
1014.542215514244
 20
840.6344956132659
 30
0.0
 11
1014.542215514244
 21
840.633495613266
 31
0.0
  0
MTEXT
  5
CAC
330
4A1
100
AcDbEntity
  8
Defpoints
440
 16777216
100
AcDbMText
 10
1011.917215514244
 20
822.1344944115658
 30
0.0
 40
4.0
 41
0.0
 71
     5
 72
     1
  1
%%c222穴
 11
0.0000000000000001
 21
1.0
 31
0.0
 73
     1
 44
1.0
  0
POINT
  5
CAD
330
4A1
100
AcDbEntity
  8
Defpoints
 62
     0
440
 16777216
100
AcDbPoint
 10
958.3047035142444
 20
803.6344932098668
 30
0.0
  0
POINT
  5
CAE
330
4A1
100
AcDbEntity
  8
Defpoints
 62
     0
440
 16777216
100
AcDbPoint
 10
958.3046264107524
 20
840.6344956132659
 30
0.0
  0
POINT
  5
CAF
330
4A1
100
AcDbEntity
  8
Defpoints
 62
     0
440
 16777216
100
AcDbPoint
 10
1014.542215514244
 20
840.6344956132659
 30
0.0
  0
ENDBLK
  5
4A3
330
4A1
100
AcDbEntity
  8
0
100
AcDbBlockEnd
  0
BLOCK
  5
4B2
330
4B1
100
AcDbEntity
  8
0
100
AcDbBlockBegin
  2
*D46
 70
     1
 10
0.0
 20
0.0
 30
0.0
  3
*D46
  1

  0
LINE
  5
E2E
330
4B1
100
AcDbEntity
  8
Size
  6
ByBlock
440
 16777216
370
     9
100
AcDbLine
 10
309.4148091842575
 20
930.3071644892195
 30
0.0
 11
309.4111298481203
 21
930.3119039496939
 31
0.0
  0
LINE
  5
E2F
330
4B1
100
AcDbEntity
  8
Size
  6
ByBlock
440
 16777216
370
     9
100
AcDbLine
 10
337.6304115753151
 20
893.9618219305133
 30
0.0
 11
371.394635966575
 21
850.4691371130416
 31
0.0
  0
LINE
  5
E30
330
4B1
100
AcDbEntity
  8
Size
  6
ByBlock
440
 16777216
370
     9
100
AcDbLine
 10
309.4184885203947
 20
930.3024250287451
 30
0.0
 11
337.6267322391778
 21
893.9665613909879
 31
0.0
  0
INSERT
  5
E31
330
4B1
100
AcDbEntity
  8
Size
440
 16777216
370
     9
100
AcDbBlockReference
  2
30a
 10
309.4184885203947
 20
930.3024250287451
 30
0.0
 41
0.006
 42
0.006
 43
0.006
 50
307.8228909606016
  0
INSERT
  5
E32
330
4B1
100
AcDbEntity
  8
Size
440
 16777216
370
     9
100
AcDbBlockReference
  2
30a
 10
337.6267322391778
 20
893.9665613909879
 30
0.0
 41
0.006
 42
0.006
 43
0.006
 50
127.8228909606016
  0
MTEXT
  5
E33
102
{ACAD_XDICTIONARY
360
EFB
102
}
330
4B1
100
AcDbEntity
  8
Size
440
 16777216
100
AcDbMText
 10
369.2716808355657
 20
878.8877588514674
 30
0.0
 40
24.0
 41
0.0
 71
     5
 72
     1
  1
\U+220546
 11
0.6132226895387698
 21
-0.7899100790816873
 31
0.0
 73
     1
 44
1.0
  0
POINT
  5
E34
330
4B1
100
AcDbEntity
  8
Defpoints
 62
     0
440
 16777216
100
AcDbPoint
 10
337.6267322391778
 20
893.9665613909879
 30
0.0
  0
POINT
  5
E35
330
4B1
100
AcDbEntity
  8
Defpoints
 62
     0
440
 16777216
100
AcDbPoint
 10
309.4184885203947
 20
930.3024250287451
 30
0.0
  0
ENDBLK
  5
4B3
330
4B1
100
AcDbEntity
  8
0
100
AcDbBlockEnd
  0
BLOCK
  5
4BD
330
4BC
100
AcDbEntity
  8
0
100
AcDbBlockBegin
  2
*D47
 70
     1
 10
0.0
 20
0.0
 30
0.0
  3
*D47
  1

  0
LINE
  5
E36
330
4BC
100
AcDbEntity
  8
Size
  6
ByBlock
440
 16777216
370
     9
100
AcDbLine
 10
310.2925385806407
 20
838.4506580836792
 30
0.0
 11
310.288759639824
 21
838.4553185135203
 31
0.0
  0
LINE
  5
E37
330
4BC
100
AcDbEntity
  8
Size
  6
ByBlock
440
 16777216
370
     9
100
AcDbLine
 10
336.7526821789334
 20
805.8183283360532
 30
0.0
 11
372.5360512327725
 21
761.6880047757073
 31
0.0
  0
LINE
  5
E38
330
4BC
100
AcDbEntity
  8
Size
  6
ByBlock
440
 16777216
370
     9
100
AcDbLine
 10
310.2963175214573
 20
838.4459976538382
 30
0.0
 11
336.7489032381167
 21
805.8229887658944
 31
0.0
  0
INSERT
  5
E39
330
4BC
100
AcDbEntity
  8
Size
440
 16777216
370
     9
100
AcDbBlockReference
  2
30a
 10
310.2963175214573
 20
838.4459976538382
 30
0.0
 41
0.006
 42
0.006
 43
0.006
 50
309.0370996326371
  0
INSERT
  5
E3A
330
4BC
100
AcDbEntity
  8
Size
440
 16777216
370
     9
100
AcDbBlockReference
  2
30a
 10
336.7489032381167
 20
805.8229887658944
 30
0.0
 41
0.006
 42
0.006
 43
0.006
 50
129.037099632637
  0
MTEXT
  5
E3B
102
{ACAD_XDICTIONARY
360
EFD
102
}
330
4BC
100
AcDbEntity
  8
Size
440
 16777216
100
AcDbMText
 10
369.8113721664502
 20
790.0552592072796
 30
0.0
 40
24.0
 41
0.0
 71
     5
 72
     1
  1
\U+220542
 11
0.629823469444259
 21
-0.7767383068557883
 31
0.0
 73
     1
 44
1.0
  0
POINT
  5
E3C
330
4BC
100
AcDbEntity
  8
Defpoints
 62
     0
440
 16777216
100
AcDbPoint
 10
336.7489032381167
 20
805.8229887658944
 30
0.0
  0
POINT
  5
E3D
330
4BC
100
AcDbEntity
  8
Defpoints
 62
     0
440
 16777216
100
AcDbPoint
 10
310.2963175214573
 20
838.4459976538382
 30
0.0
  0
ENDBLK
  5
4BE
330
4BC
100
AcDbEntity
  8
0
100
AcDbBlockEnd
  0
BLOCK
  5
4C8
330
4C7
100
AcDbEntity
  8
0
100
AcDbBlockBegin
  2
*D48
 70
     1
 10
0.0
 20
0.0
 30
0.0
  3
*D48
  1

  0
LINE
  5
E16
330
4C7
100
AcDbEntity
  8
Size
  6
ByBlock
440
 16777216
370
     9
100
AcDbLine
 10
364.7584993797873
 20
912.1344932098663
 30
0.0
 11
426.1865443797894
 21
912.1344932098663
 31
0.0
  0
LINE
  5
E17
330
4C7
100
AcDbEntity
  8
Size
  6
ByBlock
440
 16777216
370
     9
100
AcDbLine
 10
418.6865443797895
 20
822.1404927098665
 30
0.0
 11
418.6865443797894
 21
912.1284932098664
 31
0.0
  0
INSERT
  5
E18
330
4C7
100
AcDbEntity
  8
Size
440
 16777216
370
     9
100
AcDbBlockReference
  2
30a
 10
418.6865443797895
 20
822.1344927098666
 30
0.0
 41
0.006
 42
0.006
 43
0.006
 50
270.0
  0
INSERT
  5
E19
330
4C7
100
AcDbEntity
  8
Size
440
 16777216
370
     9
100
AcDbBlockReference
  2
30a
 10
418.6865443797894
 20
912.1344932098663
 30
0.0
 41
0.006
 42
0.006
 43
0.006
 50
90.0
  0
MTEXT
  5
E1A
330
4C7
100
AcDbEntity
  8
Size
440
 16777216
100
AcDbMText
 10
402.9365443797896
 20
867.134492959866
 30
0.0
 40
24.0
 41
0.0
 71
     5
 72
     1
  1
90
 11
0.0000000000000001
 21
1.0
 31
0.0
 73
     1
 44
1.0
  0
POINT
  5
E1B
330
4C7
100
AcDbEntity
  8
Defpoints
 62
     0
440
 16777216
100
AcDbPoint
 10
323.5226103797875
 20
822.1344927098666
 30
0.0
  0
POINT
  5
E1C
330
4C7
100
AcDbEntity
  8
Defpoints
 62
     0
440
 16777216
100
AcDbPoint
 10
361.0084993797873
 20
912.1344932098663
 30
0.0
  0
POINT
  5
E1D
330
4C7
100
AcDbEntity
  8
Defpoints
 62
     0
440
 16777216
100
AcDbPoint
 10
418.6865443797894
 20
912.1344932098663
 30
0.0
  0
ENDBLK
  5
4C9
330
4C7
100
AcDbEntity
  8
0
100
AcDbBlockEnd
  0
BLOCK
  5
4D3
330
4D2
100
AcDbEntity
  8
0
100
AcDbBlockBegin
  2
*D49
 70
     1
 10
0.0
 20
0.0
 30
0.0
  3
*D49
  1

  0
LINE
  5
CC8
330
4D2
100
AcDbEntity
  8
Defpoints
  6
ByBlock
440
 16777216
370
     9
100
AcDbLine
 10
390.277099483978
 20
1016.00360531698
 30
0.0
 11
409.6548367312266
 21
1072.280638247029
 31
0.0
  0
LINE
  5
CC9
330
4D2
100
AcDbEntity
  8
Defpoints
  6
ByBlock
440
 16777216
370
     9
100
AcDbLine
 10
323.5226103797874
 20
1034.535857209866
 30
0.0
 11
323.5226103797875
 21
1086.694230304155
 31
0.0
  0
ARC
  5
CCA
330
4D2
100
AcDbEntity
  8
Defpoints
  6
ByBlock
440
 16777216
370
     9
100
AcDbCircle
 10
323.5226103797874
 20
822.1345000849666
 30
0.0
 40
263.3097302191879
100
AcDbArc
 50
71.43519713066891
 51
89.56480212714401
  0
INSERT
  5
CCB
330
4D2
100
AcDbEntity
  8
Defpoints
440
 16777216
370
     9
100
AcDbBlockReference
  2
_Open30
 10
409.2478765228453
 20
1071.098740032802
 30
0.0
 41
2.0
 42
2.0
 43
2.0
 50
341.2175981942409
  0
INSERT
  5
CCC
330
4D2
100
AcDbEntity
  8
Defpoints
440
 16777216
370
     9
100
AcDbBlockReference
  2
_Open30
 10
323.5226103797875
 20
1085.444230304155
 30
0.0
 41
2.0
 42
2.0
 43
2.0
 50
179.782401063572
  0
MTEXT
  5
CCD
330
4D2
100
AcDbEntity
  8
Defpoints
440
 16777216
100
AcDbMText
 10
374.1583016964753
 20
1083.204045420369
 30
0.0
 40
4.0
 41
0.0
 71
     5
 72
     1
  1
19\U+00B0
 11
0.9817053422101873
 21
-0.190406462799925
 31
0.0
 73
     1
 44
1.0
  0
POINT
  5
CCE
330
4D2
100
AcDbEntity
  8
Defpoints
 62
     0
440
 16777216
100
AcDbPoint
 10
352.5689807465771
 20
1083.83723678563
 30
0.0
  0
POINT
  5
CCF
330
4D2
100
AcDbEntity
  8
Defpoints
 62
     0
440
 16777216
100
AcDbPoint
 10
323.5226103797874
 20
1033.910857209866
 30
0.0
  0
POINT
  5
CD0
330
4D2
100
AcDbEntity
  8
Defpoints
 62
     0
440
 16777216
100
AcDbPoint
 10
390.0736193797874
 20
1015.412656209866
 30
0.0
  0
POINT
  5
CD1
330
4D2
100
AcDbEntity
  8
Defpoints
 62
     0
440
 16777216
100
AcDbPoint
 10
365.9202813797874
 20
945.2662722098661
 30
0.0
  0
POINT
  5
CD2
330
4D2
100
AcDbEntity
  8
Defpoints
 62
     0
440
 16777216
100
AcDbPoint
 10
323.5226103797874
 20
608.9928242098661
 30
0.0
  0
ENDBLK
  5
4D4
330
4D2
100
AcDbEntity
  8
0
100
AcDbBlockEnd
  0
BLOCK
  5
4E1
330
4E0
100
AcDbEntity
  8
0
100
AcDbBlockBegin
  2
*D50
 70
     1
 10
0.0
 20
0.0
 30
0.0
  3
*D50
  1

  0
LINE
  5
CD3
330
4E0
100
AcDbEntity
  8
Defpoints
  6
ByBlock
440
 16777216
370
     9
100
AcDbLine
 10
508.1508586592117
 20
912.1837061756099
 30
0.0
 11
561.3073269291058
 21
938.1098479268377
 31
0.0
  0
LINE
  5
CD4
330
4E0
100
AcDbEntity
  8
Defpoints
  6
ByBlock
440
 16777216
370
     9
100
AcDbLine
 10
390.2770994839781
 20
1016.00360531698
 30
0.0
 11
409.6548370432502
 21
1072.280639153211
 31
0.0
  0
ARC
  5
CD5
330
4E0
100
AcDbEntity
  8
Defpoints
  6
ByBlock
440
 16777216
370
     9
100
AcDbCircle
 10
323.5226075002024
 20
822.1344917220456
 30
0.0
 40
263.3097400223828
100
AcDbArc
 50
26.43519775471896
 51
70.56480140115969
  0
INSERT
  5
CD6
330
4E0
100
AcDbEntity
  8
Defpoints
440
 16777216
370
     9
100
AcDbBlockReference
  2
_Open30
 10
560.183834370257
 20
937.5618839953501
 30
0.0
 41
2.0
 42
2.0
 43
2.0
 50
296.2175988263924
  0
INSERT
  5
CD7
330
4E0
100
AcDbEntity
  8
Defpoints
440
 16777216
370
     9
100
AcDbBlockReference
  2
_Open30
 10
409.2478768348688
 20
1071.098740938984
 30
0.0
 41
2.0
 42
2.0
 43
2.0
 50
160.7824003294862
  0
MTEXT
  5
CD8
330
4E0
100
AcDbEntity
  8
Defpoints
440
 16777216
100
AcDbMText
 10
499.7362992232534
 20
1021.307835320294
 30
0.0
 40
4.0
 41
0.0
 71
     5
 72
     1
  1
45\U+00B0
 11
0.7489557159079125
 21
-0.6626200537328058
 31
0.0
 73
     1
 44
1.0
  0
POINT
  5
CD9
330
4E0
100
AcDbEntity
  8
Defpoints
 62
     0
440
 16777216
100
AcDbPoint
 10
522.2449918118478
 20
994.8812229911192
 30
0.0
  0
POINT
  5
CDA
330
4E0
100
AcDbEntity
  8
Defpoints
 62
     0
440
 16777216
100
AcDbPoint
 10
507.5891123797872
 20
911.9097242098659
 30
0.0
  0
POINT
  5
CDB
330
4E0
100
AcDbEntity
  8
Defpoints
 62
     0
440
 16777216
100
AcDbPoint
 10
390.0736193797874
 20
1015.412656209866
 30
0.0
  0
POINT
  5
CDC
330
4E0
100
AcDbEntity
  8
Defpoints
 62
     0
440
 16777216
100
AcDbPoint
 10
365.9202813797874
 20
945.266272209866
 30
0.0
  0
POINT
  5
CDD
330
4E0
100
AcDbEntity
  8
Defpoints
 62
     0
440
 16777216
100
AcDbPoint
 10
441.5662713797874
 20
879.7082332098662
 30
0.0
  0
ENDBLK
  5
4E2
330
4E0
100
AcDbEntity
  8
0
100
AcDbBlockEnd
  0
BLOCK
  5
4EF
330
4EE
100
AcDbEntity
  8
0
100
AcDbBlockBegin
  2
*D51
 70
     1
 10
0.0
 20
0.0
 30
0.0
  3
*D51
  1

  0
LINE
  5
CDE
330
4EE
100
AcDbEntity
  8
Defpoints
  6
ByBlock
440
 16777216
370
     9
100
AcDbLine
 10
477.1290618065964
 20
869.0966986746891
 30
0.0
 11
576.4756039863446
 21
899.4700118647054
 31
0.0
  0
LINE
  5
CDF
330
4EE
100
AcDbEntity
  8
Defpoints
  6
ByBlock
440
 16777216
370
     9
100
AcDbLine
 10
508.1508586592117
 20
912.1837061756099
 30
0.0
 11
561.2634013614317
 21
938.0884239961087
 31
0.0
  0
ARC
  5
CE0
330
4EE
100
AcDbEntity
  8
Defpoints
  6
ByBlock
440
 16777216
370
     9
100
AcDbCircle
 10
323.5223823617269
 20
822.1343819146746
 30
0.0
 40
263.2611188400991
100
AcDbArc
 50
17.43529255191788
 51
25.5647216651832
  0
INSERT
  5
CE1
330
4EE
100
AcDbEntity
  8
Defpoints
440
 16777216
370
     9
100
AcDbBlockReference
  2
_Open30
 10
575.2802231327255
 20
899.1045469350593
 30
0.0
 41
2.0
 42
2.0
 43
2.0
 50
287.2176534354766
  0
INSERT
  5
CE2
330
4EE
100
AcDbEntity
  8
Defpoints
440
 16777216
370
     9
100
AcDbBlockReference
  2
_Open30
 10
560.1399088025829
 20
937.5404600646211
 30
0.0
 41
2.0
 42
2.0
 43
2.0
 50
115.7823607816245
  0
MTEXT
  5
CE3
330
4EE
100
AcDbEntity
  8
Defpoints
440
 16777216
100
AcDbMText
 10
574.9180101621375
 20
908.7118992889255
 30
0.0
 40
4.0
 41
0.0
 71
     5
 72
     1
  1
9\U+00B0
 11
0.3256187940609221
 21
-0.945501137468544
 31
0.0
 73
     1
 44
1.0
  0
POINT
  5
CE4
330
4EE
100
AcDbEntity
  8
Defpoints
 62
     0
440
 16777216
100
AcDbPoint
 10
565.855511532272
 20
924.9987158665003
 30
0.0
  0
POINT
  5
CE5
330
4EE
100
AcDbEntity
  8
Defpoints
 62
     0
440
 16777216
100
AcDbPoint
 10
476.531371379787
 20
868.9139662098659
 30
0.0
  0
POINT
  5
CE6
330
4EE
100
AcDbEntity
  8
Defpoints
 62
     0
440
 16777216
100
AcDbPoint
 10
507.5891123797872
 20
911.9097242098662
 30
0.0
  0
POINT
  5
CE7
330
4EE
100
AcDbEntity
  8
Defpoints
 62
     0
440
 16777216
100
AcDbPoint
 10
441.5662713797874
 20
879.7082332098662
 30
0.0
  0
POINT
  5
CE8
330
4EE
100
AcDbEntity
  8
Defpoints
 62
     0
440
 16777216
100
AcDbPoint
 10
474.0449793797871
 20
868.1537992098661
 30
0.0
  0
ENDBLK
  5
4F0
330
4EE
100
AcDbEntity
  8
0
100
AcDbBlockEnd
  0
BLOCK
  5
4FF
330
4FE
100
AcDbEntity
  8
0
100
AcDbBlockBegin
  2
*D52
 70
     1
 10
0.0
 20
0.0
 30
0.0
  3
*D52
  1

  0
LINE
  5
CE9
330
4FE
100
AcDbEntity
  8
Defpoints
  6
ByBlock
440
 16777216
370
     9
100
AcDbLine
 10
415.6533257309243
 20
690.5581962370941
 30
0.0
 11
475.267874528587
 21
605.4198249537103
 31
0.0
  0
LINE
  5
CEA
330
4FE
100
AcDbEntity
  8
Defpoints
  6
ByBlock
440
 16777216
370
     9
100
AcDbLine
 10
477.1290618065965
 20
869.0966986746893
 30
0.0
 11
576.5223257583691
 21
899.4842961566742
 31
0.0
  0
ARC
  5
CEB
330
4FE
100
AcDbEntity
  8
Defpoints
  6
ByBlock
440
 16777216
370
     9
100
AcDbCircle
 10
323.5226099214319
 20
822.1344514867192
 30
0.0
 40
263.3097374583615
100
AcDbArc
 50
305.4352066367901
 51
16.56481645814465
  0
INSERT
  5
CEC
330
4FE
100
AcDbEntity
  8
Defpoints
440
 16777216
370
     9
100
AcDbBlockReference
  2
_Open30
 10
474.5509038263131
 20
606.4437648992544
 30
0.0
 41
2.0
 42
2.0
 43
2.0
 50
215.2176077063446
  0
INSERT
  5
CED
330
4FE
100
AcDbEntity
  8
Defpoints
440
 16777216
370
     9
100
AcDbBlockReference
  2
_Open30
 10
575.3269449047502
 20
899.118831227028
 30
0.0
 41
2.0
 42
2.0
 43
2.0
 50
106.7824153885902
  0
MTEXT
  5
CEE
330
4FE
100
AcDbEntity
  8
Defpoints
440
 16777216
100
AcDbMText
 10
570.0048886684817
 20
737.2638522936156
 30
0.0
 40
4.0
 41
0.0
 71
     5
 72
     1
  1
72\U+00B0
 11
0.3255679638960918
 21
0.945518641214732
 31
0.0
 73
     1
 44
1.0
  0
POINT
  5
CEF
330
4FE
100
AcDbEntity
  8
Defpoints
 62
     0
440
 16777216
100
AcDbPoint
 10
549.2231319724342
 20
686.5199530498033
 30
0.0
  0
POINT
  5
CF0
330
4FE
100
AcDbEntity
  8
Defpoints
 62
     0
440
 16777216
100
AcDbPoint
 10
413.8035413797874
 20
693.1999612098662
 30
0.0
  0
POINT
  5
CF1
330
4FE
100
AcDbEntity
  8
Defpoints
 62
     0
440
 16777216
100
AcDbPoint
 10
476.5313713797872
 20
868.9139662098661
 30
0.0
  0
POINT
  5
CF2
330
4FE
100
AcDbEntity
  8
Defpoints
 62
     0
440
 16777216
100
AcDbPoint
 10
474.0449793797871
 20
868.1537992098661
 30
0.0
  0
POINT
  5
CF3
330
4FE
100
AcDbEntity
  8
Defpoints
 62
     0
440
 16777216
100
AcDbPoint
 10
415.2948403797873
 20
691.0701662098663
 30
0.0
  0
ENDBLK
  5
500
330
4FE
100
AcDbEntity
  8
0
100
AcDbBlockEnd
  0
BLOCK
  5
50D
330
50C
100
AcDbEntity
  8
0
100
AcDbBlockBegin
  2
*D53
 70
     1
 10
0.0
 20
0.0
 30
0.0
  3
*D53
  1

  0
LINE
  5
CF4
330
50C
100
AcDbEntity
  8
Defpoints
  6
ByBlock
440
 16777216
370
     9
100
AcDbLine
 10
413.6875903511975
 20
637.2688889332053
 30
0.0
 11
439.4516034676375
 21
584.4448349799271
 31
0.0
  0
LINE
  5
CF5
330
50C
100
AcDbEntity
  8
Defpoints
  6
ByBlock
440
 16777216
370
     9
100
AcDbLine
 10
415.6533257309242
 20
690.558196237094
 30
0.0
 11
475.207191234134
 21
605.5064896514702
 31
0.0
  0
ARC
  5
CF6
330
50C
100
AcDbEntity
  8
Defpoints
  6
ByBlock
440
 16777216
370
     9
100
AcDbCircle
 10
323.5226730879438
 20
822.1343612756248
 30
0.0
 40
263.2038292588199
100
AcDbArc
 50
296.4353734530676
 51
304.5646357988481
  0
INSERT
  5
CF7
330
50C
100
AcDbEntity
  8
Defpoints
440
 16777216
370
     9
100
AcDbBlockReference
  2
_Open30
 10
438.9036395248171
 20
585.5683275332485
 30
0.0
 41
2.0
 42
2.0
 43
2.0
 50
206.2176869645426
  0
INSERT
  5
CF8
330
50C
100
AcDbEntity
  8
Defpoints
440
 16777216
370
     9
100
AcDbBlockReference
  2
_Open30
 10
474.49022053186
 20
606.5304295970143
 30
0.0
 41
2.0
 42
2.0
 43
2.0
 50
34.78232228737307
  0
MTEXT
  5
CF9
330
50C
100
AcDbEntity
  8
Defpoints
440
 16777216
100
AcDbMText
 10
466.0787758618233
 20
604.008058827203
 30
0.0
 40
4.0
 41
0.0
 71
     5
 72
     1
  1
9\U+00B0
 11
0.8370837457089356
 21
0.5470747688112644
 31
0.0
 73
     1
 44
1.0
  0
POINT
  5
CFA
330
50C
100
AcDbEntity
  8
Defpoints
 62
     0
440
 16777216
100
AcDbPoint
 10
451.1264346266059
 20
591.9311124330199
 30
0.0
  0
POINT
  5
CFB
330
50C
100
AcDbEntity
  8
Defpoints
 62
     0
440
 16777216
100
AcDbPoint
 10
413.4136083797872
 20
637.830635209866
 30
0.0
  0
POINT
  5
CFC
330
50C
100
AcDbEntity
  8
Defpoints
 62
     0
440
 16777216
100
AcDbPoint
 10
413.8035413797874
 20
693.1999612098664
 30
0.0
  0
POINT
  5
CFD
330
50C
100
AcDbEntity
  8
Defpoints
 62
     0
440
 16777216
100
AcDbPoint
 10
415.2948403797873
 20
691.070166209866
 30
0.0
  0
POINT
  5
CFE
330
50C
100
AcDbEntity
  8
Defpoints
 62
     0
440
 16777216
100
AcDbPoint
 10
378.6041693797873
 20
709.2005602098662
 30
0.0
  0
ENDBLK
  5
50E
330
50C
100
AcDbEntity
  8
0
100
AcDbBlockEnd
  0
BLOCK
  5
51D
330
51C
100
AcDbEntity
  8
0
100
AcDbBlockBegin
  2
*D54
 70
     1
 10
0.0
 20
0.0
 30
0.0
  3
*D54
  1

  0
LINE
  5
CFF
330
51C
100
AcDbEntity
  8
Defpoints
  6
ByBlock
440
 16777216
370
     9
100
AcDbLine
 10
323.5226103797874
 20
608.3678242098661
 30
0.0
 11
323.5226103797873
 21
557.5747561236603
 31
0.0
  0
LINE
  5
D00
330
51C
100
AcDbEntity
  8
Defpoints
  6
ByBlock
440
 16777216
370
     9
100
AcDbLine
 10
413.6875903511974
 20
637.2688889332053
 30
0.0
 11
439.4979662215687
 21
584.3497772494401
 31
0.0
  0
ARC
  5
D01
330
51C
100
AcDbEntity
  8
Defpoints
  6
ByBlock
440
 16777216
370
     9
100
AcDbCircle
 10
323.5226103797874
 20
822.1344898463954
 30
0.0
 40
263.3097337227351
100
AcDbArc
 50
270.4351978670653
 51
295.5648026089523
  0
INSERT
  5
D02
330
51C
100
AcDbEntity
  8
Defpoints
440
 16777216
370
     9
100
AcDbBlockReference
  2
_Open30
 10
323.5226103797873
 20
558.8247561236603
 30
0.0
 41
2.0
 42
2.0
 43
2.0
 50
180.2175989335326
  0
INSERT
  5
D03
330
51C
100
AcDbEntity
  8
Defpoints
440
 16777216
370
     9
100
AcDbBlockReference
  2
_Open30
 10
438.9500022787483
 20
585.4732698027616
 30
0.0
 41
2.0
 42
2.0
 43
2.0
 50
25.78240154248494
  0
MTEXT
  5
D04
330
51C
100
AcDbEntity
  8
Defpoints
440
 16777216
100
AcDbMText
 10
382.1639171372058
 20
568.1310892040504
 30
0.0
 40
4.0
 41
0.0
 71
     5
 72
     1
  1
26\U+00B0
 11
0.9743700638507801
 21
0.2249510583914345
 31
0.0
 73
     1
 44
1.0
  0
POINT
  5
D05
330
51C
100
AcDbEntity
  8
Defpoints
 62
     0
440
 16777216
100
AcDbPoint
 10
363.1996258688922
 20
561.8313006323273
 30
0.0
  0
POINT
  5
D06
330
51C
100
AcDbEntity
  8
Defpoints
 62
     0
440
 16777216
100
AcDbPoint
 10
323.5226103797874
 20
1033.910857209866
 30
0.0
  0
POINT
  5
D07
330
51C
100
AcDbEntity
  8
Defpoints
 62
     0
440
 16777216
100
AcDbPoint
 10
413.4136083797873
 20
637.8306352098659
 30
0.0
  0
POINT
  5
D08
330
51C
100
AcDbEntity
  8
Defpoints
 62
     0
440
 16777216
100
AcDbPoint
 10
378.6041693797871
 20
709.2005602098662
 30
0.0
  0
POINT
  5
D09
330
51C
100
AcDbEntity
  8
Defpoints
 62
     0
440
 16777216
100
AcDbPoint
 10
323.5226103797874
 20
608.992824209866
 30
0.0
  0
ENDBLK
  5
51E
330
51C
100
AcDbEntity
  8
0
100
AcDbBlockEnd
  0
BLOCK
  5
52B
330
52A
100
AcDbEntity
  8
0
100
AcDbBlockBegin
  2
*D55
 70
     1
 10
0.0
 20
0.0
 30
0.0
  3
*D55
  1

  0
LINE
  5
D0A
330
52A
100
AcDbEntity
  8
Defpoints
  6
ByBlock
440
 16777216
370
     9
100
AcDbLine
 10
256.1906382811435
 20
626.5882481008424
 30
0.0
 11
237.3903846807765
 21
571.9883477242988
 31
0.0
  0
LINE
  5
D0B
330
52A
100
AcDbEntity
  8
Defpoints
  6
ByBlock
440
 16777216
370
     9
100
AcDbLine
 10
323.5226103797874
 20
608.3678242098662
 30
0.0
 11
323.5226103797874
 21
557.574756191911
 31
0.0
  0
ARC
  5
D0C
330
52A
100
AcDbEntity
  8
Defpoints
  6
ByBlock
440
 16777216
370
     9
100
AcDbCircle
 10
323.5226103797874
 20
822.1344916190878
 30
0.0
 40
263.3097354271767
100
AcDbArc
 50
251.435197659865
 51
269.5648021357518
  0
INSERT
  5
D0D
330
52A
100
AcDbEntity
  8
Defpoints
440
 16777216
370
     9
100
AcDbBlockReference
  2
_Open30
 10
237.797344878064
 20
573.1702459423464
 30
0.0
 41
2.0
 42
2.0
 43
2.0
 50
161.2175987277409
  0
INSERT
  5
D0E
330
52A
100
AcDbEntity
  8
Defpoints
440
 16777216
370
     9
100
AcDbBlockReference
  2
_Open30
 10
323.5226103797874
 20
558.824756191911
 30
0.0
 41
2.0
 42
2.0
 43
2.0
 50
359.7824010678759
  0
MTEXT
  5
D0F
330
52A
100
AcDbEntity
  8
Defpoints
440
 16777216
100
AcDbMText
 10
284.4661481426097
 20
564.3921318055462
 30
0.0
 40
4.0
 41
0.0
 71
     5
 72
     1
  1
19\U+00B0
 11
0.98871289640794
 21
-0.1498225900077224
 31
0.0
 73
     1
 44
1.0
  0
POINT
  5
D10
330
52A
100
AcDbEntity
  8
Defpoints
 62
     0
440
 16777216
100
AcDbPoint
 10
265.7844132490964
 20
565.2331148948138
 30
0.0
  0
POINT
  5
D11
330
52A
100
AcDbEntity
  8
Defpoints
 62
     0
440
 16777216
100
AcDbPoint
 10
256.3941183797873
 20
627.179197209866
 30
0.0
  0
POINT
  5
D12
330
52A
100
AcDbEntity
  8
Defpoints
 62
     0
440
 16777216
100
AcDbPoint
 10
323.5226103797874
 20
1033.910857209866
 30
0.0
  0
POINT
  5
D13
330
52A
100
AcDbEntity
  8
Defpoints
 62
     0
440
 16777216
100
AcDbPoint
 10
323.5226103797874
 20
608.9928242098663
 30
0.0
  0
POINT
  5
D14
330
52A
100
AcDbEntity
  8
Defpoints
 62
     0
440
 16777216
100
AcDbPoint
 10
282.1378883797875
 20
701.9445332098661
 30
0.0
  0
ENDBLK
  5
52C
330
52A
100
AcDbEntity
  8
0
100
AcDbBlockEnd
  0
BLOCK
  5
539
330
538
100
AcDbEntity
  8
0
100
AcDbBlockBegin
  2
*D56
 70
     1
 10
0.0
 20
0.0
 30
0.0
  3
*D56
  1

  0
LINE
  5
D15
330
538
100
AcDbEntity
  8
Defpoints
  6
ByBlock
440
 16777216
370
     9
100
AcDbLine
 10
206.0489224177011
 20
712.5885061260613
 30
0.0
 11
130.0358796148067
 21
641.7051631534569
 31
0.0
  0
LINE
  5
D16
330
538
100
AcDbEntity
  8
Defpoints
  6
ByBlock
440
 16777216
370
     9
100
AcDbLine
 10
256.1906382811436
 20
626.5882481008424
 30
0.0
 11
237.3903854017723
 21
571.9883498182226
 31
0.0
  0
ARC
  5
D17
330
538
100
AcDbEntity
  8
Defpoints
  6
ByBlock
440
 16777216
370
     9
100
AcDbCircle
 10
323.5226372683173
 20
822.1345697090479
 30
0.0
 40
263.3098158021568
100
AcDbArc
 50
223.4352113649064
 51
250.5648020642128
  0
INSERT
  5
D18
330
538
100
AcDbEntity
  8
Defpoints
440
 16777216
370
     9
100
AcDbBlockReference
  2
_Open30
 10
130.9500715389791
 20
642.5576613210665
 30
0.0
 41
2.0
 42
2.0
 43
2.0
 50
133.2176124992044
  0
INSERT
  5
D19
330
538
100
AcDbEntity
  8
Defpoints
440
 16777216
370
     9
100
AcDbBlockReference
  2
_Open30
 10
237.7973455990598
 20
573.1702480362701
 30
0.0
 41
2.0
 42
2.0
 43
2.0
 50
340.7824009299148
  0
MTEXT
  5
D1A
330
538
100
AcDbEntity
  8
Defpoints
440
 16777216
100
AcDbMText
 10
181.5435363681132
 20
603.5058705468062
 30
0.0
 40
4.0
 41
0.0
 71
     5
 72
     1
  1
28\U+00B0
 11
0.8386706317723094
 21
-0.5446389367302302
 31
0.0
 73
     1
 44
1.0
  0
POINT
  5
D1B
330
538
100
AcDbEntity
  8
Defpoints
 62
     0
440
 16777216
100
AcDbPoint
 10
162.6228305266458
 20
613.7039786523164
 30
0.0
  0
POINT
  5
D1C
330
538
100
AcDbEntity
  8
Defpoints
 62
     0
440
 16777216
100
AcDbPoint
 10
208.4075373797872
 20
714.7879512098661
 30
0.0
  0
POINT
  5
D1D
330
538
100
AcDbEntity
  8
Defpoints
 62
     0
440
 16777216
100
AcDbPoint
 10
256.3941183797873
 20
627.1791972098661
 30
0.0
  0
POINT
  5
D1E
330
538
100
AcDbEntity
  8
Defpoints
 62
     0
440
 16777216
100
AcDbPoint
 10
282.1378883797874
 20
701.9445332098659
 30
0.0
  0
POINT
  5
D1F
330
538
100
AcDbEntity
  8
Defpoints
 62
     0
440
 16777216
100
AcDbPoint
 10
206.5060183797873
 20
713.0147552098661
 30
0.0
  0
ENDBLK
  5
53A
330
538
100
AcDbEntity
  8
0
100
AcDbBlockEnd
  0
BLOCK
  5
547
330
546
100
AcDbEntity
  8
0
100
AcDbBlockBegin
  2
*D57
 70
     1
 10
0.0
 20
0.0
 30
0.0
  3
*D57
  1

  0
LINE
  5
D20
330
546
100
AcDbEntity
  8
Defpoints
  6
ByBlock
440
 16777216
370
     9
100
AcDbLine
 10
298.3953249565114
 20
980.7819324413285
 30
0.0
 11
282.1363714842657
 21
1083.43705088196
 31
0.0
  0
LINE
  5
D21
330
546
100
AcDbEntity
  8
Defpoints
  6
ByBlock
440
 16777216
370
     9
100
AcDbLine
 10
206.0489224177011
 20
712.5885061260614
 30
0.0
 11
130.0359047515351
 21
641.7051865938455
 31
0.0
  0
ARC
  5
D22
330
546
100
AcDbEntity
  8
Defpoints
  6
ByBlock
440
 16777216
370
     9
100
AcDbCircle
 10
323.5225767310948
 20
822.1345132571487
 30
0.0
 40
263.3096986577862
100
AcDbArc
 50
99.43518703083583
 51
222.5648157084819
  0
INSERT
  5
D23
330
546
100
AcDbEntity
  8
Defpoints
440
 16777216
370
     9
100
AcDbBlockReference
  2
_Open30
 10
282.331914330818
 20
1082.202440419036
 30
0.0
 41
2.0
 42
2.0
 43
2.0
 50
9.217588068325405
  0
INSERT
  5
D24
330
546
100
AcDbEntity
  8
Defpoints
440
 16777216
370
     9
100
AcDbBlockReference
  2
_Open30
 10
130.9500966757076
 20
642.5576847614552
 30
0.0
 41
2.0
 42
2.0
 43
2.0
 50
312.7824146709923
  0
MTEXT
  5
D25
330
546
100
AcDbEntity
  8
Defpoints
440
 16777216
100
AcDbMText
 10
72.07637718405459
 20
908.7143762944485
 30
0.0
 40
4.0
 41
0.0
 71
     5
 72
     1
  1
124\U+00B0
 11
0.3255681318544709
 21
0.9455185833820454
 31
0.0
 73
     1
 44
1.0
  0
POINT
  5
D26
330
546
100
AcDbEntity
  8
Defpoints
 62
     0
440
 16777216
100
AcDbPoint
 10
120.8344028445653
 20
990.2103936617988
 30
0.0
  0
POINT
  5
D27
330
546
100
AcDbEntity
  8
Defpoints
 62
     0
440
 16777216
100
AcDbPoint
 10
208.4075373797872
 20
714.7879512098661
 30
0.0
  0
POINT
  5
D28
330
546
100
AcDbEntity
  8
Defpoints
 62
     0
440
 16777216
100
AcDbPoint
 10
298.4930963797875
 20
980.1646272098663
 30
0.0
  0
POINT
  5
D29
330
546
100
AcDbEntity
  8
Defpoints
 62
     0
440
 16777216
100
AcDbPoint
 10
298.8998253797874
 20
977.5966382098662
 30
0.0
  0
POINT
  5
D2A
330
546
100
AcDbEntity
  8
Defpoints
 62
     0
440
 16777216
100
AcDbPoint
 10
206.5060183797873
 20
713.0147552098662
 30
0.0
  0
ENDBLK
  5
548
330
546
100
AcDbEntity
  8
0
100
AcDbBlockEnd
  0
BLOCK
  5
555
330
554
100
AcDbEntity
  8
0
100
AcDbBlockBegin
  2
*D58
 70
     1
 10
0.0
 20
0.0
 30
0.0
  3
*D58
  1

  0
LINE
  5
D2B
330
554
100
AcDbEntity
  8
Defpoints
  6
ByBlock
440
 16777216
370
     9
100
AcDbLine
 10
323.5226103797874
 20
1034.535857209865
 30
0.0
 11
323.5226103797874
 21
1086.628655312038
 31
0.0
  0
LINE
  5
D2C
330
554
100
AcDbEntity
  8
Defpoints
  6
ByBlock
440
 16777216
370
     9
100
AcDbLine
 10
298.3953249565113
 20
980.7819324413284
 30
0.0
 11
282.146627198327
 21
1083.372298772077
 31
0.0
  0
ARC
  5
D2D
330
554
100
AcDbEntity
  8
Defpoints
  6
ByBlock
440
 16777216
370
     9
100
AcDbCircle
 10
323.5226103797874
 20
822.1343008074169
 30
0.0
 40
263.2443545046216
100
AcDbArc
 50
90.43530595307981
 51
98.56468315273595
  0
INSERT
  5
D2E
330
554
100
AcDbEntity
  8
Defpoints
440
 16777216
370
     9
100
AcDbBlockReference
  2
_Open30
 10
323.5226103797874
 20
1085.378655312038
 30
0.0
 41
2.0
 42
2.0
 43
2.0
 50
0.2176529765399041
  0
INSERT
  5
D2F
330
554
100
AcDbEntity
  8
Defpoints
440
 16777216
370
     9
100
AcDbBlockReference
  2
_Open30
 10
282.3421700448792
 20
1082.137688309153
 30
0.0
 41
2.0
 42
2.0
 43
2.0
 50
188.7823361292758
  0
MTEXT
  5
D30
330
554
100
AcDbEntity
  8
Defpoints
440
 16777216
100
AcDbMText
 10
316.2396160667445
 20
1087.903884579789
 30
0.0
 40
4.0
 41
0.0
 71
     5
 72
     1
  1
9\U+00B0
 11
0.999624737749732
 21
0.0273931319636775
 31
0.0
 73
     1
 44
1.0
  0
POINT
  5
D31
330
554
100
AcDbEntity
  8
Defpoints
 62
     0
440
 16777216
100
AcDbPoint
 10
296.006115725483
 20
1083.936578682332
 30
0.0
  0
POINT
  5
D32
330
554
100
AcDbEntity
  8
Defpoints
 62
     0
440
 16777216
100
AcDbPoint
 10
298.4930963797873
 20
980.1646272098663
 30
0.0
  0
POINT
  5
D33
330
554
100
AcDbEntity
  8
Defpoints
 62
     0
440
 16777216
100
AcDbPoint
 10
323.5226103797874
 20
1033.910857209866
 30
0.0
  0
POINT
  5
D34
330
554
100
AcDbEntity
  8
Defpoints
 62
     0
440
 16777216
100
AcDbPoint
 10
323.5226103797873
 20
608.9928242098661
 30
0.0
  0
POINT
  5
D35
330
554
100
AcDbEntity
  8
Defpoints
 62
     0
440
 16777216
100
AcDbPoint
 10
298.8998253797874
 20
977.596638209866
 30
0.0
  0
ENDBLK
  5
556
330
554
100
AcDbEntity
  8
0
100
AcDbBlockEnd
  0
BLOCK
  5
565
330
564
100
AcDbEntity
  8
0
100
AcDbBlockBegin
  2
*D59
 70
     1
 10
0.0
 20
0.0
 30
0.0
  3
*D59
  1

  0
LINE
  5
D36
330
564
100
AcDbEntity
  8
Defpoints
  6
ByBlock
440
 16777216
370
     9
100
AcDbLine
 10
2128.686926492081
 20
900.6596517637767
 30
0.0
 11
2128.686926492081
 21
762.4961463692658
 31
0.0
  0
LINE
  5
D37
330
564
100
AcDbEntity
  8
Defpoints
  6
ByBlock
440
 16777216
370
     9
100
AcDbLine
 10
2156.836984882389
 20
821.5094932098661
 30
0.0
 11
2156.836984882389
 21
762.4961463692658
 31
0.0
  0
LINE
  5
D38
330
564
100
AcDbEntity
  8
Defpoints
  6
ByBlock
440
 16777216
370
     9
100
AcDbLine
 10
2128.687926492081
 20
763.7461463692658
 30
0.0
 11
2156.835984882389
 21
763.7461463692658
 31
0.0
  0
INSERT
  5
D39
330
564
100
AcDbEntity
  8
Defpoints
440
 16777216
370
     9
100
AcDbBlockReference
  2
30a
 10
2128.686926492081
 20
763.7461463692658
 30
0.0
 41
0.001
 42
0.001
 43
0.001
  0
LINE
  5
D3A
330
564
100
AcDbEntity
  8
Defpoints
440
 16777216
370
     9
100
AcDbLine
 10
2128.68592649208
 20
763.7461463692658
 30
0.0
 11
2128.684926492081
 21
763.7461463692658
 31
0.0
  0
LINE
  5
D3B
330
564
100
AcDbEntity
  8
Defpoints
  6
ByBlock
440
 16777216
370
     9
100
AcDbLine
 10
2128.686926492081
 20
763.7461463692658
 30
0.0
 11
2128.687926492081
 21
763.7461463692658
 31
0.0
  0
INSERT
  5
D3C
330
564
100
AcDbEntity
  8
Defpoints
440
 16777216
370
     9
100
AcDbBlockReference
  2
30a
 10
2156.836984882389
 20
763.7461463692658
 30
0.0
 41
0.001
 42
0.001
 43
0.001
 50
180.0
  0
LINE
  5
D3D
330
564
100
AcDbEntity
  8
Defpoints
440
 16777216
370
     9
100
AcDbLine
 10
2156.837984882389
 20
763.7461463692658
 30
0.0
 11
2156.838984882389
 21
763.7461463692658
 31
0.0
  0
LINE
  5
D3E
330
564
100
AcDbEntity
  8
Defpoints
  6
ByBlock
440
 16777216
370
     9
100
AcDbLine
 10
2156.836984882389
 20
763.7461463692658
 30
0.0
 11
2156.835984882389
 21
763.7461463692658
 31
0.0
  0
MTEXT
  5
D3F
330
564
100
AcDbEntity
  8
Defpoints
440
 16777216
100
AcDbMText
 10
2142.761955687235
 20
766.3711463692658
 30
0.0
 40
4.0
 41
0.0
 71
     5
 72
     1
  1
169
 73
     1
 44
1.0
  0
POINT
  5
D40
330
564
100
AcDbEntity
  8
Defpoints
 62
     0
440
 16777216
100
AcDbPoint
 10
2128.686926492081
 20
901.2846517637767
 30
0.0
  0
POINT
  5
D41
330
564
100
AcDbEntity
  8
Defpoints
 62
     0
440
 16777216
100
AcDbPoint
 10
2156.836984882389
 20
822.1344932098663
 30
0.0
  0
POINT
  5
D42
330
564
100
AcDbEntity
  8
Defpoints
 62
     0
440
 16777216
100
AcDbPoint
 10
2156.836984882389
 20
763.7461463692658
 30
0.0
  0
ENDBLK
  5
566
330
564
100
AcDbEntity
  8
0
100
AcDbBlockEnd
  0
BLOCK
  5
575
330
574
100
AcDbEntity
  8
0
100
AcDbBlockBegin
  2
*D60
 70
     1
 10
0.0
 20
0.0
 30
0.0
  3
*D60
  1

  0
LINE
  5
DF2
330
574
100
AcDbEntity
  8
Size
  6
ByBlock
440
 16777216
370
     9
100
AcDbLine
 10
2169.798591277684
 20
1002.1348537873
 30
0.0
 11
2266.162507347187
 21
1002.1348537873
 31
0.0
  0
LINE
  5
DF3
330
574
100
AcDbEntity
  8
Size
  6
ByBlock
440
 16777216
370
     9
100
AcDbLine
 10
2169.798591277684
 20
642.1341326324326
 30
0.0
 11
2266.162507347187
 21
642.1341326324326
 31
0.0
  0
LINE
  5
DF4
330
574
100
AcDbEntity
  8
Size
  6
ByBlock
440
 16777216
370
     9
100
AcDbLine
 10
2258.662507347187
 20
1002.1288537873
 30
0.0
 11
2258.662507347187
 21
642.1401326324326
 31
0.0
  0
INSERT
  5
DF5
330
574
100
AcDbEntity
  8
Size
440
 16777216
370
     9
100
AcDbBlockReference
  2
30a
 10
2258.662507347187
 20
1002.1348537873
 30
0.0
 41
0.006
 42
0.006
 43
0.006
 50
90.0
  0
INSERT
  5
DF6
330
574
100
AcDbEntity
  8
Size
440
 16777216
370
     9
100
AcDbBlockReference
  2
30a
 10
2258.662507347187
 20
642.1341326324326
 30
0.0
 41
0.006
 42
0.006
 43
0.006
 50
270.0
  0
MTEXT
  5
DF7
330
574
100
AcDbEntity
  8
Size
440
 16777216
100
AcDbMText
 10
2242.912507347187
 20
822.1344932098658
 30
0.0
 40
24.0
 41
0.0
 71
     5
 72
     1
  1
%%c360
 11
0.0000000000000001
 21
1.0
 31
0.0
 73
     1
 44
1.0
  0
POINT
  5
DF8
330
574
100
AcDbEntity
  8
Defpoints
 62
     0
440
 16777216
100
AcDbPoint
 10
2166.048591277685
 20
1002.1348537873
 30
0.0
  0
POINT
  5
DF9
330
574
100
AcDbEntity
  8
Defpoints
 62
     0
440
 16777216
100
AcDbPoint
 10
2166.048591277685
 20
642.1341326324326
 30
0.0
  0
POINT
  5
DFA
330
574
100
AcDbEntity
  8
Defpoints
 62
     0
440
 16777216
100
AcDbPoint
 10
2258.662507347187
 20
642.1341326324326
 30
0.0
  0
ENDBLK
  5
576
330
574
100
AcDbEntity
  8
0
100
AcDbBlockEnd
  0
BLOCK
  5
581
330
580
100
AcDbEntity
  8
0
100
AcDbBlockBegin
  2
*D61
 70
     1
 10
0.0
 20
0.0
 30
0.0
  3
*D61
  1

  0
LINE
  5
D4C
330
580
100
AcDbEntity
  8
Defpoints
  6
ByBlock
440
 16777216
370
     9
100
AcDbLine
 10
1617.115333763076
 20
1003.633856792112
 30
0.0
 11
1617.115333763076
 21
640.6351296276207
 31
0.0
  0
INSERT
  5
D4D
330
580
100
AcDbEntity
  8
Defpoints
440
 16777216
370
     9
100
AcDbBlockReference
  2
30a
 10
1617.115333763076
 20
1003.634856792112
 30
0.0
 41
0.001
 42
0.001
 43
0.001
 50
90.0
  0
INSERT
  5
D4E
330
580
100
AcDbEntity
  8
Defpoints
440
 16777216
370
     9
100
AcDbBlockReference
  2
30a
 10
1617.115333763076
 20
640.6341296276208
 30
0.0
 41
0.001
 42
0.001
 43
0.001
 50
270.0
  0
MTEXT
  5
D4F
330
580
100
AcDbEntity
  8
Defpoints
440
 16777216
100
AcDbMText
 10
1614.490333763076
 20
732.2187506836968
 30
0.0
 40
4.0
 41
0.0
 71
     5
 72
     1
  1
I.D2178
 11
0.0000000000000001
 21
1.0
 31
0.0
 73
     1
 44
1.0
  0
POINT
  5
D50
330
580
100
AcDbEntity
  8
Defpoints
 62
     0
440
 16777216
100
AcDbPoint
 10
1557.185781658729
 20
1003.634856792112
 30
0.0
  0
POINT
  5
D51
330
580
100
AcDbEntity
  8
Defpoints
 62
     0
440
 16777216
100
AcDbPoint
 10
1557.185781658729
 20
640.6341296276208
 30
0.0
  0
POINT
  5
D52
330
580
100
AcDbEntity
  8
Defpoints
 62
     0
440
 16777216
100
AcDbPoint
 10
1617.115333763076
 20
640.6341296276208
 30
0.0
  0
ENDBLK
  5
582
330
580
100
AcDbEntity
  8
0
100
AcDbBlockEnd
  0
BLOCK
  5
58B
330
58A
100
AcDbEntity
  8
0
100
AcDbBlockBegin
  2
*D62
 70
     1
 10
0.0
 20
0.0
 30
0.0
  3
*D62
  1

  0
LINE
  5
D53
330
58A
100
AcDbEntity
  8
Defpoints
  6
ByBlock
440
 16777216
370
     9
100
AcDbLine
 10
1617.115333763076
 20
1003.635856792112
 30
0.0
 11
1617.115333763076
 21
1006.133861800132
 31
0.0
  0
LINE
  5
D54
330
58A
100
AcDbEntity
  8
Defpoints
  6
ByBlock
440
 16777216
370
     9
100
AcDbLine
 10
1617.115333763076
 20
1006.134861800132
 30
0.0
 11
1617.115333763076
 21
1045.323014497545
 31
0.0
  0
INSERT
  5
D55
330
58A
100
AcDbEntity
  8
Defpoints
440
 16777216
370
     9
100
AcDbBlockReference
  2
30a
 10
1617.115333763076
 20
1003.634856792112
 30
0.0
 41
0.001
 42
0.001
 43
0.001
 50
270.0
  0
INSERT
  5
D56
330
58A
100
AcDbEntity
  8
Defpoints
440
 16777216
370
     9
100
AcDbBlockReference
  2
30a
 10
1617.115333763076
 20
1006.134861800132
 30
0.0
 41
0.001
 42
0.001
 43
0.001
 50
90.0
  0
MTEXT
  5
D57
330
58A
100
AcDbEntity
  8
Defpoints
440
 16777216
100
AcDbMText
 10
1614.490333763076
 20
1042.564681164211
 30
0.0
 40
4.0
 41
0.0
 71
     5
 72
     1
  1
15
 11
0.0000000000000001
 21
1.0
 31
0.0
 73
     1
 44
1.0
  0
POINT
  5
D58
330
58A
100
AcDbEntity
  8
Defpoints
 62
     0
440
 16777216
100
AcDbPoint
 10
1557.184388155938
 20
1006.134861800132
 30
0.0
  0
POINT
  5
D59
330
58A
100
AcDbEntity
  8
Defpoints
 62
     0
440
 16777216
100
AcDbPoint
 10
1557.184388155939
 20
1003.634856792112
 30
0.0
  0
POINT
  5
D5A
330
58A
100
AcDbEntity
  8
Defpoints
 62
     0
440
 16777216
100
AcDbPoint
 10
1617.115333763076
 20
1003.634856792112
 30
0.0
  0
ENDBLK
  5
58C
330
58A
100
AcDbEntity
  8
0
100
AcDbBlockEnd
  0
BLOCK
  5
597
330
596
100
AcDbEntity
  8
0
100
AcDbBlockBegin
  2
*D63
 70
     1
 10
0.0
 20
0.0
 30
0.0
  3
*D63
  1

  0
LINE
  5
DEB
330
596
100
AcDbEntity
  8
Size
  6
ByBlock
440
 16777216
370
     9
100
AcDbLine
 10
1666.974025406773
 20
1006.128861800132
 30
0.0
 11
1666.974025406773
 21
638.1401246196007
 31
0.0
  0
INSERT
  5
DEC
330
596
100
AcDbEntity
  8
Size
440
 16777216
370
     9
100
AcDbBlockReference
  2
30a
 10
1666.974025406773
 20
1006.134861800132
 30
0.0
 41
0.006
 42
0.006
 43
0.006
 50
90.0
  0
INSERT
  5
DED
330
596
100
AcDbEntity
  8
Size
440
 16777216
370
     9
100
AcDbBlockReference
  2
30a
 10
1666.974025406773
 20
638.1341246196008
 30
0.0
 41
0.006
 42
0.006
 43
0.006
 50
270.0
  0
MTEXT
  5
DEE
330
596
100
AcDbEntity
  8
Size
440
 16777216
100
AcDbMText
 10
1651.224025406773
 20
732.4414085197837
 30
0.0
 40
24.0
 41
0.0
 71
     5
 72
     1
  1
%%c368
 11
0.0000000000000001
 21
1.0
 31
0.0
 73
     1
 44
1.0
  0
POINT
  5
DEF
330
596
100
AcDbEntity
  8
Defpoints
 62
     0
440
 16777216
100
AcDbPoint
 10
1557.184388155938
 20
1006.134861800132
 30
0.0
  0
POINT
  5
DF0
330
596
100
AcDbEntity
  8
Defpoints
 62
     0
440
 16777216
100
AcDbPoint
 10
1557.184388155938
 20
638.1341246196008
 30
0.0
  0
POINT
  5
DF1
330
596
100
AcDbEntity
  8
Defpoints
 62
     0
440
 16777216
100
AcDbPoint
 10
1666.974025406773
 20
638.1341246196008
 30
0.0
  0
ENDBLK
  5
598
330
596
100
AcDbEntity
  8
0
100
AcDbBlockEnd
  0
BLOCK
  5
5A1
330
5A0
100
AcDbEntity
  8
0
100
AcDbBlockBegin
  2
*D64
 70
     1
 10
0.0
 20
0.0
 30
0.0
  3
*D64
  1

  0
LINE
  5
D62
330
5A0
100
AcDbEntity
  8
Defpoints
  6
ByBlock
440
 16777216
370
     9
100
AcDbLine
 10
954.6817857203418
 20
822.7594932098662
 30
0.0
 11
954.6817857203418
 21
1132.698371677777
 31
0.0
  0
LINE
  5
D63
330
5A0
100
AcDbEntity
  8
Defpoints
  6
ByBlock
440
 16777216
370
     9
100
AcDbLine
 10
2159.686990591532
 20
822.7594932098662
 30
0.0
 11
2159.686990591532
 21
1132.698371677777
 31
0.0
  0
LINE
  5
D64
330
5A0
100
AcDbEntity
  8
Defpoints
  6
ByBlock
440
 16777216
370
     9
100
AcDbLine
 10
954.6827857203417
 20
1131.448371677778
 30
0.0
 11
2159.685990591531
 21
1131.448371677778
 31
0.0
  0
INSERT
  5
D65
330
5A0
100
AcDbEntity
  8
Defpoints
440
 16777216
370
     9
100
AcDbBlockReference
  2
30a
 10
954.6817857203418
 20
1131.448371677778
 30
0.0
 41
0.001
 42
0.001
 43
0.001
 50
180.0
  0
INSERT
  5
D66
330
5A0
100
AcDbEntity
  8
Defpoints
440
 16777216
370
     9
100
AcDbBlockReference
  2
30a
 10
2159.686990591532
 20
1131.448371677778
 30
0.0
 41
0.001
 42
0.001
 43
0.001
  0
MTEXT
  5
D67
330
5A0
100
AcDbEntity
  8
Defpoints
440
 16777216
100
AcDbMText
 10
1557.184388155937
 20
1134.073371677777
 30
0.0
 40
4.0
 41
0.0
 71
     5
 72
     1
  1
7230.02
 73
     1
 44
1.0
  0
POINT
  5
D68
330
5A0
100
AcDbEntity
  8
Defpoints
 62
     0
440
 16777216
100
AcDbPoint
 10
954.6817857203418
 20
822.1344932098663
 30
0.0
  0
POINT
  5
D69
330
5A0
100
AcDbEntity
  8
Defpoints
 62
     0
440
 16777216
100
AcDbPoint
 10
2159.686990591532
 20
822.1344932098663
 30
0.0
  0
POINT
  5
D6A
330
5A0
100
AcDbEntity
  8
Defpoints
 62
     0
440
 16777216
100
AcDbPoint
 10
2159.686990591532
 20
1131.448371677778
 30
0.0
  0
ENDBLK
  5
5A2
330
5A0
100
AcDbEntity
  8
0
100
AcDbBlockEnd
  0
BLOCK
  5
5AD
330
5AC
100
AcDbEntity
  8
0
100
AcDbBlockBegin
  2
*D65
 70
     1
 10
0.0
 20
0.0
 30
0.0
  3
*D65
  1

  0
LINE
  5
D6B
330
5AC
100
AcDbEntity
  8
Defpoints
  6
ByBlock
440
 16777216
370
     9
100
AcDbLine
 10
2159.680990591532
 20
822.7594932098662
 30
0.0
 11
2159.680990591532
 21
1132.698371677777
 31
0.0
  0
LINE
  5
D6C
330
5AC
100
AcDbEntity
  8
Defpoints
  6
ByBlock
440
 16777216
370
     9
100
AcDbLine
 10
2181.048621325803
 20
987.7598237391806
 30
0.0
 11
2181.048621325803
 21
1132.698371677777
 31
0.0
  0
LINE
  5
D6D
330
5AC
100
AcDbEntity
  8
Defpoints
  6
ByBlock
440
 16777216
370
     9
100
AcDbLine
 10
2159.681990591532
 20
1131.448371677778
 30
0.0
 11
2181.047621325802
 21
1131.448371677778
 31
0.0
  0
LINE
  5
D6E
330
5AC
100
AcDbEntity
  8
Defpoints
  6
ByBlock
440
 16777216
370
     9
100
AcDbLine
 10
2181.048621325803
 20
1131.448371677778
 30
0.0
 11
2212.061842035678
 21
1131.448371677778
 31
0.0
  0
INSERT
  5
D6F
330
5AC
100
AcDbEntity
  8
Defpoints
440
 16777216
370
     9
100
AcDbBlockReference
  2
30a
 10
2159.680990591532
 20
1131.448371677778
 30
0.0
 41
0.001
 42
0.001
 43
0.001
  0
LINE
  5
D70
330
5AC
100
AcDbEntity
  8
Defpoints
440
 16777216
370
     9
100
AcDbLine
 10
2159.679990591532
 20
1131.448371677778
 30
0.0
 11
2159.678990591531
 21
1131.448371677778
 31
0.0
  0
LINE
  5
D71
330
5AC
100
AcDbEntity
  8
Defpoints
  6
ByBlock
440
 16777216
370
     9
100
AcDbLine
 10
2159.680990591532
 20
1131.448371677778
 30
0.0
 11
2159.681990591532
 21
1131.448371677778
 31
0.0
  0
INSERT
  5
D72
330
5AC
100
AcDbEntity
  8
Defpoints
440
 16777216
370
     9
100
AcDbBlockReference
  2
30a
 10
2181.048621325803
 20
1131.448371677778
 30
0.0
 41
0.001
 42
0.001
 43
0.001
 50
180.0
  0
LINE
  5
D73
330
5AC
100
AcDbEntity
  8
Defpoints
440
 16777216
370
     9
100
AcDbLine
 10
2181.049621325803
 20
1131.448371677778
 30
0.0
 11
2181.050621325804
 21
1131.448371677778
 31
0.0
  0
LINE
  5
D74
330
5AC
100
AcDbEntity
  8
Defpoints
  6
ByBlock
440
 16777216
370
     9
100
AcDbLine
 10
2181.048621325803
 20
1131.448371677778
 30
0.0
 11
2181.047621325802
 21
1131.448371677778
 31
0.0
  0
MTEXT
  5
D75
330
5AC
100
AcDbEntity
  8
Defpoints
440
 16777216
100
AcDbMText
 10
2208.103508702345
 20
1134.073371677777
 30
0.0
 40
4.0
 41
0.0
 71
     5
 72
     1
  1
128
 73
     1
 44
1.0
  0
POINT
  5
D76
330
5AC
100
AcDbEntity
  8
Defpoints
 62
     0
440
 16777216
100
AcDbPoint
 10
2159.680990591532
 20
822.1344932098663
 30
0.0
  0
POINT
  5
D77
330
5AC
100
AcDbEntity
  8
Defpoints
 62
     0
440
 16777216
100
AcDbPoint
 10
2181.048621325803
 20
987.1348237391806
 30
0.0
  0
POINT
  5
D78
330
5AC
100
AcDbEntity
  8
Defpoints
 62
     0
440
 16777216
100
AcDbPoint
 10
2181.048621325803
 20
1131.448371677778
 30
0.0
  0
ENDBLK
  5
5AE
330
5AC
100
AcDbEntity
  8
0
100
AcDbBlockEnd
  0
BLOCK
  5
5BE
330
5BD
100
AcDbEntity
  8
0
100
AcDbBlockBegin
  2
*D66
 70
     1
 10
0.0
 20
0.0
 30
0.0
  3
*D66
  1

  0
LINE
  5
D79
330
5BD
100
AcDbEntity
  8
Defpoints
  6
ByBlock
440
 16777216
370
     9
100
AcDbLine
 10
932.6812344308379
 20
841.7595312708176
 30
0.0
 11
932.6812344308379
 21
1132.698371677777
 31
0.0
  0
LINE
  5
D7A
330
5BD
100
AcDbEntity
  8
Defpoints
  6
ByBlock
440
 16777216
370
     9
100
AcDbLine
 10
954.681785720342
 20
822.7594932098662
 30
0.0
 11
954.681785720342
 21
1132.698371677777
 31
0.0
  0
LINE
  5
D7B
330
5BD
100
AcDbEntity
  8
Defpoints
  6
ByBlock
440
 16777216
370
     9
100
AcDbLine
 10
954.680785720342
 20
1131.448371677778
 30
0.0
 11
932.6822344308379
 21
1131.448371677778
 31
0.0
  0
LINE
  5
D7C
330
5BD
100
AcDbEntity
  8
Defpoints
  6
ByBlock
440
 16777216
370
     9
100
AcDbLine
 10
932.6812344308379
 20
1131.448371677778
 30
0.0
 11
901.7861851434686
 21
1131.448371677778
 31
0.0
  0
INSERT
  5
D7D
330
5BD
100
AcDbEntity
  8
Defpoints
440
 16777216
370
     9
100
AcDbBlockReference
  2
30a
 10
954.681785720342
 20
1131.448371677778
 30
0.0
 41
0.001
 42
0.001
 43
0.001
 50
180.0
  0
LINE
  5
D7E
330
5BD
100
AcDbEntity
  8
Defpoints
440
 16777216
370
     9
100
AcDbLine
 10
954.6827857203421
 20
1131.448371677778
 30
0.0
 11
954.6837857203421
 21
1131.448371677778
 31
0.0
  0
LINE
  5
D7F
330
5BD
100
AcDbEntity
  8
Defpoints
  6
ByBlock
440
 16777216
370
     9
100
AcDbLine
 10
954.681785720342
 20
1131.448371677778
 30
0.0
 11
954.680785720342
 21
1131.448371677778
 31
0.0
  0
INSERT
  5
D80
330
5BD
100
AcDbEntity
  8
Defpoints
440
 16777216
370
     9
100
AcDbBlockReference
  2
30a
 10
932.6812344308379
 20
1131.448371677778
 30
0.0
 41
0.001
 42
0.001
 43
0.001
  0
LINE
  5
D81
330
5BD
100
AcDbEntity
  8
Defpoints
440
 16777216
370
     9
100
AcDbLine
 10
932.6802344308379
 20
1131.448371677778
 30
0.0
 11
932.679234430838
 21
1131.448371677778
 31
0.0
  0
LINE
  5
D82
330
5BD
100
AcDbEntity
  8
Defpoints
  6
ByBlock
440
 16777216
370
     9
100
AcDbLine
 10
932.6812344308379
 20
1131.448371677778
 30
0.0
 11
932.6822344308379
 21
1131.448371677778
 31
0.0
  0
MTEXT
  5
D83
330
5BD
100
AcDbEntity
  8
Defpoints
440
 16777216
100
AcDbMText
 10
905.7445184768017
 20
1134.073371677777
 30
0.0
 40
4.0
 41
0.0
 71
     5
 72
     1
  1
132
 73
     1
 44
1.0
  0
POINT
  5
D84
330
5BD
100
AcDbEntity
  8
Defpoints
 62
     0
440
 16777216
100
AcDbPoint
 10
932.6812344308379
 20
841.1345312708174
 30
0.0
  0
POINT
  5
D85
330
5BD
100
AcDbEntity
  8
Defpoints
 62
     0
440
 16777216
100
AcDbPoint
 10
954.681785720342
 20
822.1344932098663
 30
0.0
  0
POINT
  5
D86
330
5BD
100
AcDbEntity
  8
Defpoints
 62
     0
440
 16777216
100
AcDbPoint
 10
954.681785720342
 20
1131.448371677778
 30
0.0
  0
ENDBLK
  5
5BF
330
5BD
100
AcDbEntity
  8
0
100
AcDbBlockEnd
  0
BLOCK
  5
5CF
330
5CE
100
AcDbEntity
  8
0
100
AcDbBlockBegin
  2
*D67
 70
     1
 10
0.0
 20
0.0
 30
0.0
  3
*D67
  1

  0
LINE
  5
D87
330
5CE
100
AcDbEntity
  8
Defpoints
  6
ByBlock
440
 16777216
370
     9
100
AcDbLine
 10
944.6817656882616
 20
933.7597155659503
 30
0.0
 11
944.6817656882616
 21
1096.698372177778
 31
0.0
  0
LINE
  5
D88
330
5CE
100
AcDbEntity
  8
Defpoints
  6
ByBlock
440
 16777216
370
     9
100
AcDbLine
 10
954.6817857203414
 20
822.7594932098662
 30
0.0
 11
954.6817857203414
 21
1096.698372177778
 31
0.0
  0
LINE
  5
D89
330
5CE
100
AcDbEntity
  8
Defpoints
  6
ByBlock
440
 16777216
370
     9
100
AcDbLine
 10
954.6807857203415
 20
1095.448372177778
 30
0.0
 11
944.6827656882616
 21
1095.448372177778
 31
0.0
  0
LINE
  5
D8A
330
5CE
100
AcDbEntity
  8
Defpoints
  6
ByBlock
440
 16777216
370
     9
100
AcDbLine
 10
944.6817656882616
 20
1095.448372177778
 30
0.0
 11
911.5071131226379
 21
1095.448372177778
 31
0.0
  0
INSERT
  5
D8B
330
5CE
100
AcDbEntity
  8
Defpoints
440
 16777216
370
     9
100
AcDbBlockReference
  2
30a
 10
954.6817857203414
 20
1095.448372177778
 30
0.0
 41
0.001
 42
0.001
 43
0.001
 50
180.0
  0
LINE
  5
D8C
330
5CE
100
AcDbEntity
  8
Defpoints
440
 16777216
370
     9
100
AcDbLine
 10
954.6827857203414
 20
1095.448372177778
 30
0.0
 11
954.6837857203414
 21
1095.448372177778
 31
0.0
  0
LINE
  5
D8D
330
5CE
100
AcDbEntity
  8
Defpoints
  6
ByBlock
440
 16777216
370
     9
100
AcDbLine
 10
954.6817857203414
 20
1095.448372177778
 30
0.0
 11
954.6807857203415
 21
1095.448372177778
 31
0.0
  0
INSERT
  5
D8E
330
5CE
100
AcDbEntity
  8
Defpoints
440
 16777216
370
     9
100
AcDbBlockReference
  2
30a
 10
944.6817656882616
 20
1095.448372177778
 30
0.0
 41
0.001
 42
0.001
 43
0.001
  0
LINE
  5
D8F
330
5CE
100
AcDbEntity
  8
Defpoints
440
 16777216
370
     9
100
AcDbLine
 10
944.6807656882617
 20
1095.448372177778
 30
0.0
 11
944.6797656882617
 21
1095.448372177778
 31
0.0
  0
LINE
  5
D90
330
5CE
100
AcDbEntity
  8
Defpoints
  6
ByBlock
440
 16777216
370
     9
100
AcDbLine
 10
944.6817656882616
 20
1095.448372177778
 30
0.0
 11
944.6827656882616
 21
1095.448372177778
 31
0.0
  0
MTEXT
  5
D91
330
5CE
100
AcDbEntity
  8
Defpoints
440
 16777216
100
AcDbMText
 10
914.2654464559713
 20
1098.073372177778
 30
0.0
 40
4.0
 41
0.0
 71
     5
 72
     1
  1
60
 73
     1
 44
1.0
  0
POINT
  5
D92
330
5CE
100
AcDbEntity
  8
Defpoints
 62
     0
440
 16777216
100
AcDbPoint
 10
944.6817656882616
 20
933.1347155659504
 30
0.0
  0
POINT
  5
D93
330
5CE
100
AcDbEntity
  8
Defpoints
 62
     0
440
 16777216
100
AcDbPoint
 10
954.6817857203414
 20
822.1344932098663
 30
0.0
  0
POINT
  5
D94
330
5CE
100
AcDbEntity
  8
Defpoints
 62
     0
440
 16777216
100
AcDbPoint
 10
954.6817857203414
 20
1095.448372177778
 30
0.0
  0
ENDBLK
  5
5D0
330
5CE
100
AcDbEntity
  8
0
100
AcDbBlockEnd
  0
BLOCK
  5
5E0
330
5DF
100
AcDbEntity
  8
0
100
AcDbBlockBegin
  2
*D68
 70
     1
 10
0.0
 20
0.0
 30
0.0
  3
*D68
  1

  0
LINE
  5
E79
330
5DF
100
AcDbEntity
  8
Size
  6
ByBlock
440
 16777216
370
     9
100
AcDbLine
 10
932.6812344308372
 20
844.8845312708176
 30
0.0
 11
932.6812344308372
 21
1098.948371677777
 31
0.0
  0
LINE
  5
E7A
330
5DF
100
AcDbEntity
  8
Size
  6
ByBlock
440
 16777216
370
     9
100
AcDbLine
 10
2181.048621325802
 20
994.6348237391804
 30
0.0
 11
2181.048621325802
 21
1098.948371677777
 31
0.0
  0
LINE
  5
E7B
330
5DF
100
AcDbEntity
  8
Size
  6
ByBlock
440
 16777216
370
     9
100
AcDbLine
 10
932.6872344308371
 20
1091.448371677778
 30
0.0
 11
2181.042621325802
 21
1091.448371677778
 31
0.0
  0
INSERT
  5
E7C
330
5DF
100
AcDbEntity
  8
Size
440
 16777216
370
     9
100
AcDbBlockReference
  2
30a
 10
932.6812344308372
 20
1091.448371677778
 30
0.0
 41
0.006
 42
0.006
 43
0.006
 50
180.0
  0
INSERT
  5
E7D
330
5DF
100
AcDbEntity
  8
Size
440
 16777216
370
     9
100
AcDbBlockReference
  2
30a
 10
2181.048621325802
 20
1091.448371677778
 30
0.0
 41
0.006
 42
0.006
 43
0.006
  0
MTEXT
  5
E7E
330
5DF
100
AcDbEntity
  8
Size
440
 16777216
100
AcDbMText
 10
1556.86492787832
 20
1107.198371677778
 30
0.0
 40
24.0
 41
0.0
 71
     5
 72
     1
  1
1248
 73
     1
 44
1.0
  0
POINT
  5
E7F
330
5DF
100
AcDbEntity
  8
Defpoints
 62
     0
440
 16777216
100
AcDbPoint
 10
932.6812344308372
 20
841.1345312708174
 30
0.0
  0
POINT
  5
E80
330
5DF
100
AcDbEntity
  8
Defpoints
 62
     0
440
 16777216
100
AcDbPoint
 10
2181.048621325802
 20
990.8848237391804
 30
0.0
  0
POINT
  5
E81
330
5DF
100
AcDbEntity
  8
Defpoints
 62
     0
440
 16777216
100
AcDbPoint
 10
2181.048621325802
 20
1091.448371677778
 30
0.0
  0
ENDBLK
  5
5E1
330
5DF
100
AcDbEntity
  8
0
100
AcDbBlockEnd
  0
BLOCK
  5
5EC
330
5EB
100
AcDbEntity
  8
0
100
AcDbBlockBegin
  2
*D69
 70
     1
 10
0.0
 20
0.0
 30
0.0
  3
*D69
  1

  0
LINE
  5
E82
330
5EB
100
AcDbEntity
  8
Size
  6
ByBlock
440
 16777216
370
     9
100
AcDbLine
 10
808.6565983850041
 20
975.0347919883346
 30
0.0
 11
808.6565983850041
 21
1134.880700672156
 31
0.0
  0
LINE
  5
E83
330
5EB
100
AcDbEntity
  8
Size
  6
ByBlock
440
 16777216
370
     9
100
AcDbLine
 10
2180.796069694624
 20
993.6257691575306
 30
0.0
 11
2180.796069694624
 21
1134.880700672156
 31
0.0
  0
LINE
  5
E84
330
5EB
100
AcDbEntity
  8
Size
  6
ByBlock
440
 16777216
370
     9
100
AcDbLine
 10
808.6625983850041
 20
1127.380700672156
 30
0.0
 11
2180.790069694623
 21
1127.380700672156
 31
0.0
  0
INSERT
  5
E85
330
5EB
100
AcDbEntity
  8
Size
440
 16777216
370
     9
100
AcDbBlockReference
  2
30a
 10
808.6565983850041
 20
1127.380700672156
 30
0.0
 41
0.006
 42
0.006
 43
0.006
 50
180.0
  0
INSERT
  5
E86
330
5EB
100
AcDbEntity
  8
Size
440
 16777216
370
     9
100
AcDbBlockReference
  2
30a
 10
2180.796069694624
 20
1127.380700672156
 30
0.0
 41
0.006
 42
0.006
 43
0.006
  0
MTEXT
  5
E87
330
5EB
100
AcDbEntity
  8
Size
440
 16777216
100
AcDbMText
 10
1494.726334039814
 20
1143.130700672156
 30
0.0
 40
24.0
 41
0.0
 71
     5
 72
     1
  1
約1372
 73
     1
 44
1.0
  0
POINT
  5
E88
330
5EB
100
AcDbEntity
  8
Defpoints
 62
     0
440
 16777216
100
AcDbPoint
 10
808.6565983850041
 20
971.2847919883344
 30
0.0
  0
POINT
  5
E89
330
5EB
100
AcDbEntity
  8
Defpoints
 62
     0
440
 16777216
100
AcDbPoint
 10
2180.796069694624
 20
989.8757691575307
 30
0.0
  0
POINT
  5
E8A
330
5EB
100
AcDbEntity
  8
Defpoints
 62
     0
440
 16777216
100
AcDbPoint
 10
2180.796069694624
 20
1127.380700672156
 30
0.0
  0
ENDBLK
  5
5ED
330
5EB
100
AcDbEntity
  8
0
100
AcDbBlockEnd
  0
BLOCK
  5
5F8
330
5F7
100
AcDbEntity
  8
0
100
AcDbBlockBegin
  2
*D70
 70
     1
 10
0.0
 20
0.0
 30
0.0
  3
*D70
  1

  0
LINE
  5
DA7
330
5F7
100
AcDbEntity
  8
Defpoints
  6
ByBlock
440
 16777216
370
     9
100
AcDbLine
 10
808.6565983850043
 20
672.359194431398
 30
0.0
 11
808.6565983850043
 21
593.0782525989567
 31
0.0
  0
LINE
  5
DA8
330
5F7
100
AcDbEntity
  8
Defpoints
  6
ByBlock
440
 16777216
370
     9
100
AcDbLine
 10
994.6569709816857
 20
661.5091726965917
 30
0.0
 11
994.6569709816857
 21
593.0782525989567
 31
0.0
  0
LINE
  5
DA9
330
5F7
100
AcDbEntity
  8
Defpoints
  6
ByBlock
440
 16777216
370
     9
100
AcDbLine
 10
808.6575983850043
 20
594.3282525989567
 30
0.0
 11
994.6559709816858
 21
594.3282525989567
 31
0.0
  0
INSERT
  5
DAA
330
5F7
100
AcDbEntity
  8
Defpoints
440
 16777216
370
     9
100
AcDbBlockReference
  2
30a
 10
808.6565983850043
 20
594.3282525989567
 30
0.0
 41
0.001
 42
0.001
 43
0.001
 50
180.0
  0
INSERT
  5
DAB
330
5F7
100
AcDbEntity
  8
Defpoints
440
 16777216
370
     9
100
AcDbBlockReference
  2
30a
 10
994.6569709816857
 20
594.3282525989567
 30
0.0
 41
0.001
 42
0.001
 43
0.001
  0
MTEXT
  5
DAC
330
5F7
100
AcDbEntity
  8
Defpoints
440
 16777216
100
AcDbMText
 10
901.6567846833451
 20
596.9532525989567
 30
0.0
 40
4.0
 41
0.0
 71
     5
 72
     1
  1
1116
 73
     1
 44
1.0
  0
POINT
  5
DAD
330
5F7
100
AcDbEntity
  8
Defpoints
 62
     0
440
 16777216
100
AcDbPoint
 10
808.6565983850043
 20
672.984194431398
 30
0.0
  0
POINT
  5
DAE
330
5F7
100
AcDbEntity
  8
Defpoints
 62
     0
440
 16777216
100
AcDbPoint
 10
994.6569709816857
 20
662.1341726965916
 30
0.0
  0
POINT
  5
DAF
330
5F7
100
AcDbEntity
  8
Defpoints
 62
     0
440
 16777216
100
AcDbPoint
 10
994.6569709816857
 20
594.3282525989567
 30
0.0
  0
ENDBLK
  5
5F9
330
5F7
100
AcDbEntity
  8
0
100
AcDbBlockEnd
  0
BLOCK
  5
604
330
603
100
AcDbEntity
  8
0
100
AcDbBlockBegin
  2
*D71
 70
     1
 10
0.0
 20
0.0
 30
0.0
  3
*D71
  1

  0
LINE
  5
DB0
330
603
100
AcDbEntity
  8
Defpoints
  6
ByBlock
440
 16777216
370
     9
100
AcDbLine
 10
1008.504929847038
 20
989.1666048353274
 30
0.0
 11
1006.702818612433
 21
991.3719464454686
 31
0.0
  0
LINE
  5
DB1
330
603
100
AcDbEntity
  8
Defpoints
  6
ByBlock
440
 16777216
370
     9
100
AcDbLine
 10
1006.702185849925
 20
991.3727207913918
 30
0.0
 11
983.8465931491398
 21
1019.342353652889
 31
0.0
  0
INSERT
  5
DB2
330
603
100
AcDbEntity
  8
Defpoints
440
 16777216
370
     9
100
AcDbBlockReference
  2
30a
 10
1008.505562609546
 20
989.1658304894042
 30
0.0
 41
0.001
 42
0.001
 43
0.001
 50
309.2542307026082
  0
INSERT
  5
DB3
330
603
100
AcDbEntity
  8
Defpoints
440
 16777216
370
     9
100
AcDbBlockReference
  2
30a
 10
1006.702185849925
 20
991.3727207913918
 30
0.0
 41
0.001
 42
0.001
 43
0.001
 50
129.2542307026081
  0
MTEXT
  5
DB4
330
603
100
AcDbEntity
  8
Defpoints
440
 16777216
100
AcDbMText
 10
989.1432511333679
 20
1017.009020848531
 30
0.0
 40
4.0
 41
0.0
 71
     5
 72
     1
  1
17.1
 11
0.6327625077505355
 21
-0.7743459232056779
 31
0.0
 73
     1
 44
1.0
  0
POINT
  5
DB5
330
603
100
AcDbEntity
  8
Defpoints
 62
     0
440
 16777216
100
AcDbPoint
 10
1006.702185849924
 20
991.3727207913908
 30
0.0
  0
POINT
  5
DB6
330
603
100
AcDbEntity
  8
Defpoints
 62
     0
440
 16777216
100
AcDbPoint
 10
1008.505562609544
 20
989.1658304894029
 30
0.0
  0
POINT
  5
DB7
330
603
100
AcDbEntity
  8
Defpoints
 62
     0
440
 16777216
100
AcDbPoint
 10
1008.505562609546
 20
989.1658304894042
 30
0.0
  0
ENDBLK
  5
605
330
603
100
AcDbEntity
  8
0
100
AcDbBlockEnd
  0
ENDSEC
  0
SECTION
  2
ENTITIES
  0
LINE
  5
94
330
70
100
AcDbEntity
  8
Center
 62
     2
370
     9
100
AcDbLine
 10
90.91677442285698
 20
822.1344932098663
 30
0.0
 11
2220.949263312359
 21
822.1344932098663
 31
0.0
  0
CIRCLE
  5
99
330
70
100
AcDbEntity
  8
Line
 62
     3
370
    30
100
AcDbCircle
 10
323.5226103797874
 20
822.1344932098663
 30
0.0
 40
184.0003685902657
  0
CIRCLE
  5
9D
330
70
100
AcDbEntity
  8
Center
 62
     2
370
     9
100
AcDbCircle
 10
323.5226103797874
 20
822.1344932098663
 30
0.0
 40
149.1502987784681
  0
CIRCLE
  5
9E
330
70
100
AcDbEntity
  8
Line
 62
     3
370
    30
100
AcDbCircle
 10
323.5226103797874
 20
822.1344932098663
 30
0.0
 40
138.3002770436617
  0
CIRCLE
  5
9F
330
70
100
AcDbEntity
  8
Line
 62
     3
370
    30
100
AcDbCircle
 10
323.5226103797874
 20
822.1344932098663
 30
0.0
 40
12.50002504009957
  0
CIRCLE
  5
A0
330
70
100
AcDbEntity
  8
Line
 62
     3
370
    30
100
AcDbCircle
 10
323.5226103797874
 20
912.1346734985833
 30
0.0
 40
12.50002504009957
  0
CIRCLE
  5
A1
330
70
100
AcDbEntity
  8
Line
 62
     4
370
     9
100
AcDbCircle
 10
323.5226103797874
 20
822.1344932098663
 30
0.0
 40
14.00002804491152
  0
LINE
  5
A2
330
70
100
AcDbEntity
  8
Center
 62
     2
370
     9
100
AcDbLine
 10
323.5226103797874
 20
1033.911281441965
 30
0.0
 11
323.5226103797874
 21
608.992397242777
 31
0.0
  0
CIRCLE
  5
A3
330
70
100
AcDbEntity
  8
Line
 62
     4
370
     9
100
AcDbCircle
 10
323.5226103797874
 20
912.1346734985833
 30
0.0
 40
14.00002804491152
  0
CIRCLE
  5
A4
330
70
100
AcDbEntity
  8
Line
 62
     3
370
    30
100
AcDbCircle
 10
323.5226103797874
 20
912.1346734985833
 30
0.0
 40
23.00004607378322
  0
LINE
  5
A5
330
70
100
AcDbEntity
  8
Center
 62
     2
370
     9
100
AcDbLine
 10
286.036646287756
 20
912.1346734985833
 30
0.0
 11
361.0085744718187
 21
912.1346734985833
 31
0.0
  0
CIRCLE
  5
A6
330
70
100
AcDbEntity
  8
Line
 62
     3
370
    30
100
AcDbCircle
 10
323.5226103797874
 20
822.1344932098663
 30
0.0
 40
21.00004206736729
  0
CIRCLE
  5
A7
330
70
100
AcDbEntity
  8
Line
 62
     3
370
    30
100
AcDbCircle
 10
323.5226103797874
 20
822.1344932098663
 30
0.0
 40
160.0003205132745
  0
LINE
  5
A8
330
70
100
AcDbEntity
  8
Center
 62
     2
370
     9
100
AcDbLine
 10
390.073752695299
 20
1015.413043386222
 30
0.0
 11
365.9203663111399
 21
945.2665188684269
 31
0.0
  0
LINE
  5
A9
330
70
100
AcDbEntity
  8
Center
 62
     2
370
     9
100
AcDbLine
 10
507.5894811032705
 20
911.9099040483241
 30
0.0
 11
441.5665078457894
 21
879.7083485420408
 31
0.0
  0
LINE
  5
AA
330
70
100
AcDbEntity
  8
Line
 62
     3
370
     9
100
AcDbLine
 10
298.4930462404653
 20
980.1649437770894
 30
0.0
 11
298.8997760552282
 21
977.5969496328736
 31
0.0
  0
LINE
  5
AB
330
70
100
AcDbEntity
  8
Line
 62
     3
370
     9
100
AcDbLine
 10
476.5316778881557
 20
868.9140599188791
 30
0.0
 11
474.0452809073956
 21
868.1538913961066
 31
0.0
  0
LINE
  5
AC
330
70
100
AcDbEntity
  8
Center
 62
     2
370
     9
100
AcDbLine
 10
413.4137884501503
 20
637.8302660109097
 30
0.0
 11
378.604279719605
 21
709.2003339797121
 31
0.0
  0
LINE
  5
AD
330
70
100
AcDbEntity
  8
Line
 62
     3
370
     9
100
AcDbLine
 10
413.8037222312671
 20
693.1997029271847
 30
0.0
 11
415.2950242186493
 21
691.0699036607624
 31
0.0
  0
ARC
  5
AE
330
70
100
AcDbEntity
  8
Hidden
 62
     3
370
     9
100
AcDbCircle
 10
323.5226103797874
 20
822.1344932098663
 30
0.0
 40
157.4003153049338
100
AcDbArc
 50
61.18712299999025
 51
98.99999999999527
  0
ARC
  5
B2
330
70
100
AcDbEntity
  8
Hidden
 62
     3
370
     9
100
AcDbCircle
 10
323.5226103797874
 20
822.1344932098663
 30
0.0
 40
157.4003153049338
100
AcDbArc
 50
222.9999999999879
 51
305.0000000000106
  0
LINE
  5
B3
330
70
100
AcDbEntity
  8
Line
 62
     3
370
     9
100
AcDbLine
 10
208.4073067803555
 20
714.7877361724182
 30
0.0
 11
206.5057839712182
 21
713.0145366203379
 31
0.0
  0
ARC
  5
B4
330
70
100
AcDbEntity
  8
Hidden
 62
     3
370
     9
100
AcDbCircle
 10
323.5226103797874
 20
822.1344932098663
 30
0.0
 40
157.4003153049338
100
AcDbArc
 50
16.9999999999962
 51
61.18712299999025
  0
LINE
  5
B5
330
70
100
AcDbEntity
  8
Center
 62
     2
370
     9
100
AcDbLine
 10
256.393983907457
 20
627.1788066738642
 30
0.0
 11
282.1378054775824
 21
701.9442924443809
 31
0.0
  0
ARC
  5
B6
330
70
100
AcDbEntity
  8
Line
 62
     3
370
    30
100
AcDbCircle
 10
464.0137888122714
 20
894.5107931943566
 30
0.0
 40
8.000016025663727
100
AcDbArc
 50
0.3410939999984354
 51
51.65890600000654
  0
LINE
  5
B7
330
70
100
AcDbEntity
  8
Line
 62
     3
370
    30
100
AcDbLine
 10
472.0136628376509
 20
894.5584182897592
 30
0.0
 11
467.3299454552092
 21
892.2740167136369
 31
0.0
  0
LINE
  5
B8
330
70
100
AcDbEntity
  8
Line
 62
     3
370
    30
100
AcDbLine
 10
469.6855901740457
 20
901.1312894565607
 30
0.0
 11
475.75985134203
 21
888.6772085084967
 31
0.0
  0
LINE
  5
B9
330
70
100
AcDbEntity
  8
Line
 62
     3
370
    30
100
AcDbLine
 10
470.3670765392018
 20
886.0469772396069
 30
0.0
 11
475.75985134203
 21
888.6772085084967
 31
0.0
  0
LINE
  5
BA
330
70
100
AcDbEntity
  8
Line
 62
     3
370
    30
100
AcDbLine
 10
464.2928153712182
 20
898.501057187669
 30
0.0
 11
470.3670765392018
 21
886.0469772396069
 31
0.0
  0
LINE
  5
BB
330
70
100
AcDbEntity
  8
Line
 62
     3
370
    30
100
AcDbLine
 10
469.6855901740457
 20
901.1312894565607
 30
0.0
 11
464.2928153712182
 21
898.501057187669
 31
0.0
  0
ARC
  5
BC
330
70
100
AcDbEntity
  8
Line
 62
     3
370
    30
100
AcDbCircle
 10
467.050918896262
 20
888.2837527203244
 30
0.0
 40
8.000016025663727
100
AcDbArc
 50
0.3410939999984354
 51
51.65890600000654
  0
ARC
  5
BD
330
70
100
AcDbEntity
  8
Line
 62
     3
370
    30
100
AcDbCircle
 10
371.6871028630886
 20
972.6545307322005
 30
0.0
 40
8.000016025663727
100
AcDbArc
 50
45.34109399999665
 51
96.65890600000963
  0
LINE
  5
BE
330
70
100
AcDbEntity
  8
Line
 62
     3
370
    30
100
AcDbLine
 10
377.310192127284
 20
978.344972131315
 30
0.0
 11
375.613619728703
 21
973.4177682611209
 31
0.0
  0
LINE
  5
BF
330
70
100
AcDbEntity
  8
Line
 62
     3
370
    30
100
AcDbLine
 10
371.0162745192829
 20
981.3464981439839
 30
0.0
 11
384.1177897642901
 21
976.8352841071022
 31
0.0
  0
LINE
  5
C0
330
70
100
AcDbEntity
  8
Line
 62
     3
370
    30
100
AcDbLine
 10
382.1643778512079
 20
971.1621617426809
 30
0.0
 11
384.1177897642901
 21
976.8352841071022
 31
0.0
  0
LINE
  5
C1
330
70
100
AcDbEntity
  8
Line
 62
     3
370
    30
100
AcDbLine
 10
369.0628616061986
 20
975.6733747795609
 30
0.0
 11
382.1643778512079
 21
971.1621617426809
 31
0.0
  0
LINE
  5
C2
330
70
100
AcDbEntity
  8
Line
 62
     3
370
    30
100
AcDbLine
 10
371.0162745192829
 20
981.3464981439839
 30
0.0
 11
369.0628616061986
 21
975.6733747795609
 31
0.0
  0
ARC
  5
C3
330
70
100
AcDbEntity
  8
Line
 62
     3
370
    30
100
AcDbCircle
 10
378.2378609855938
 20
970.3989242137605
 30
0.0
 40
8.000016025663727
100
AcDbArc
 50
45.34109399999665
 51
96.65890600000963
  0
ARC
  5
C4
330
70
100
AcDbEntity
  8
Line
 62
     3
370
    30
100
AcDbCircle
 10
395.8989103642774
 20
681.6433147773823
 30
0.0
 40
8.000016025663727
100
AcDbArc
 50
270.3410939999888
 51
321.6589060000065
  0
LINE
  5
C5
330
70
100
AcDbEntity
  8
Line
 62
     3
370
    30
100
AcDbLine
 10
395.9465354596801
 20
673.643440752003
 30
0.0
 11
393.6621338835581
 21
678.3271581344441
 31
0.0
  0
LINE
  5
C6
330
70
100
AcDbEntity
  8
Line
 62
     3
370
    30
100
AcDbLine
 10
402.5194066264819
 20
675.9715134156073
 30
0.0
 11
390.0653266784194
 21
669.8972522476234
 31
0.0
  0
LINE
  5
C7
330
70
100
AcDbEntity
  8
Line
 62
     3
370
    30
100
AcDbLine
 10
387.4350944095279
 20
675.2900270504511
 30
0.0
 11
390.0653266784194
 21
669.8972522476234
 31
0.0
  0
LINE
  5
C8
330
70
100
AcDbEntity
  8
Line
 62
     3
370
    30
100
AcDbLine
 10
399.88917435759
 20
681.3642882184352
 30
0.0
 11
387.4350944095279
 21
675.2900270504511
 31
0.0
  0
LINE
  5
C9
330
70
100
AcDbEntity
  8
Line
 62
     3
370
    30
100
AcDbLine
 10
402.5194066264819
 20
675.9715134156073
 30
0.0
 11
399.88917435759
 21
681.3642882184352
 31
0.0
  0
ARC
  5
CA
330
70
100
AcDbEntity
  8
Line
 62
     3
370
    30
100
AcDbCircle
 10
389.6718698902455
 20
678.6061836933892
 30
0.0
 40
8.000016025663727
100
AcDbArc
 50
270.3410939999888
 51
321.6589060000065
  0
ARC
  5
CB
330
70
100
AcDbEntity
  8
Line
 62
     3
370
    30
100
AcDbCircle
 10
275.3581178964854
 20
671.614455687532
 30
0.0
 40
8.000016025663727
100
AcDbArc
 50
225.3410939999966
 51
276.6589059999902
  0
LINE
  5
CC
330
70
100
AcDbEntity
  8
Line
 62
     3
370
    30
100
AcDbLine
 10
269.7350286322907
 20
665.9240142884174
 30
0.0
 11
271.4316010308713
 21
670.8512181586116
 31
0.0
  0
LINE
  5
CD
330
70
100
AcDbEntity
  8
Line
 62
     3
370
    30
100
AcDbLine
 10
276.0289462402915
 20
662.9224882757486
 30
0.0
 11
262.9274299952825
 21
667.4337023126304
 31
0.0
  0
LINE
  5
CE
330
70
100
AcDbEntity
  8
Line
 62
     3
370
    30
100
AcDbLine
 10
264.8808429083668
 20
673.1068246770515
 30
0.0
 11
262.9274299952825
 21
667.4337023126304
 31
0.0
  0
LINE
  5
CF
330
70
100
AcDbEntity
  8
Line
 62
     3
370
    30
100
AcDbLine
 10
277.9823591533761
 20
668.5956116401718
 30
0.0
 11
264.8808429083668
 21
673.1068246770515
 31
0.0
  0
LINE
  5
D0
330
70
100
AcDbEntity
  8
Line
 62
     3
370
    30
100
AcDbLine
 10
276.0289462402915
 20
662.9224882757486
 30
0.0
 11
277.9823591533761
 21
668.5956116401718
 31
0.0
  0
ARC
  5
D1
330
70
100
AcDbEntity
  8
Line
 62
     3
370
    30
100
AcDbCircle
 10
268.8073597739809
 20
673.8700622059719
 30
0.0
 40
8.000016025663727
100
AcDbArc
 50
225.3410939999966
 51
276.6589059999902
  0
ARC
  5
D2
330
70
100
AcDbEntity
  8
Phantom
 62
     7
 48
0.5
370
     9
100
AcDbCircle
 10
323.5226103797874
 20
822.1344932098663
 30
0.0
 40
80.00016025663727
100
AcDbArc
 50
135.0000000000069
 51
205.0000000000034
  0
LINE
  5
D6
330
70
100
AcDbEntity
  8
Phantom
 62
     7
 48
0.5
370
     9
100
AcDbLine
 10
225.7295464803352
 20
919.9275571093183
 30
0.0
 11
266.9539540612313
 21
878.7031485284202
 31
0.0
  0
LINE
  5
D7
330
70
100
AcDbEntity
  8
Phantom
 62
     7
 48
0.5
370
     9
100
AcDbLine
 10
198.1799922929593
 20
763.6862701261547
 30
0.0
 11
251.0178421379487
 21
788.3249644824847
 31
0.0
  0
LINE
  5
D8
330
70
100
AcDbEntity
  8
Center
 62
     2
370
     9
100
AcDbLine
 10
1557.185781658728
 20
1044.761805177778
 30
0.0
 11
1557.185781658728
 21
599.5071812419547
 31
0.0
  0
LINE
  5
D9
330
70
100
AcDbEntity
  8
Center
 62
     2
370
     9
100
AcDbLine
 10
926.3394739449109
 20
912.1346734985833
 30
0.0
 11
2143.965787098755
 21
912.1346734985833
 31
0.0
  0
LINE
  5
DA
330
70
100
AcDbEntity
  8
Line
 62
     3
370
    30
100
AcDbLine
 10
980.6818378037485
 20
922.98469523339
 30
0.0
 11
1052.394479931424
 21
922.9846952333899
 31
0.0
  0
LINE
  5
DB
330
70
100
AcDbEntity
  8
Line
 62
     3
370
    30
100
AcDbLine
 10
980.6818378037485
 20
901.2846517637774
 30
0.0
 11
1070.591510850066
 21
901.2846517637774
 31
0.0
  0
LINE
  5
DC
330
70
100
AcDbEntity
  8
Line
 62
     3
370
    30
100
AcDbLine
 10
1073.184812106073
 20
1006.134861800132
 30
0.0
 11
2041.183964205802
 21
1006.134861800132
 31
0.0
  0
LINE
  5
DD
330
70
100
AcDbEntity
  8
Hidden
 62
     3
370
     9
100
AcDbLine
 10
1557.185781658728
 20
640.6341296276203
 30
0.0
 11
1635.177932892915
 21
640.6341296276203
 31
0.0
  0
LINE
  5
DE
330
70
100
AcDbEntity
  8
Line
 62
     3
370
    30
100
AcDbLine
 10
2128.686926492082
 20
901.2846517637768
 30
0.0
 11
2128.686926492082
 21
922.9846952333895
 31
0.0
  0
LINE
  5
DF
330
70
100
AcDbEntity
  8
Line
100
AcDbLine
 10
2066.271684164854
 20
638.1341246196005
 30
0.0
 11
2041.186751211384
 21
638.1341246196005
 31
0.0
  0
LINE
  5
E0
330
70
100
AcDbEntity
  8
Line
100
AcDbLine
 10
2066.271684164854
 20
1006.134861800132
 30
0.0
 11
2043.281717408028
 21
1006.134858800126
 31
0.0
  0
LINE
  5
E1
330
70
100
AcDbEntity
  8
Center
 62
     2
370
     9
100
AcDbLine
 10
2041.186751211384
 20
1025.301770695359
 30
0.0
 11
2041.186751211384
 21
618.9672157243726
 31
0.0
  0
LINE
  5
E2
330
70
100
AcDbEntity
  8
Line
 62
     3
370
    30
100
AcDbLine
 10
2043.1867552178
 20
822.1344932098663
 30
0.0
 11
2043.1867552178
 21
638.1341246196005
 31
0.0
  0
LINE
  5
E3
330
70
100
AcDbEntity
  8
Line
 62
     3
370
    30
100
AcDbLine
 10
2039.186747204968
 20
822.1344932098663
 30
0.0
 11
2039.186747204968
 21
638.1341246196005
 31
0.0
  0
LINE
  5
E4
330
70
100
AcDbEntity
  8
Line
 62
     3
370
    30
100
AcDbLine
 10
2133.69503446691
 20
1002.1348537873
 30
0.0
 11
2166.048591277684
 21
1002.1348537873
 31
0.0
  0
LINE
  5
E5
330
70
100
AcDbEntity
  8
Line
 62
     3
370
    30
100
AcDbLine
 10
2181.048621325803
 20
657.1341626805518
 30
0.0
 11
2181.048621325803
 21
987.1348237391806
 31
0.0
  0
LINE
  5
E6
330
70
100
AcDbEntity
  8
Line
 62
     3
370
    30
100
AcDbLine
 10
2110.048479098037
 20
792.1344331136273
 30
0.0
 11
2110.048479098037
 21
707.3336662403959
 31
0.0
  0
LINE
  5
E7
330
70
100
AcDbEntity
  8
Line
 62
     3
370
    30
100
AcDbLine
 10
2112.036203079853
 20
987.4627023959885
 30
0.0
 11
2128.846706754721
 21
996.7810170624733
 31
0.0
  0
LINE
  5
E8
330
70
100
AcDbEntity
  8
Line
 62
     3
370
    30
100
AcDbLine
 10
2133.694853466549
 20
998.0348455741475
 30
0.0
 11
2166.048591277684
 21
998.0348455741475
 31
0.0
  0
LINE
  5
E9
330
70
100
AcDbEntity
  8
Center
 62
     2
370
     9
100
AcDbLine
 10
2150.048559226356
 20
985.4299023238755
 30
0.0
 11
2150.048559226356
 21
1016.229144021038
 31
0.0
  0
LINE
  5
EA
330
70
100
AcDbEntity
  8
Line
 62
     3
370
    30
100
AcDbLine
 10
2157.548574250416
 20
1002.1348537873
 30
0.0
 11
2157.548574250416
 21
998.0348455741475
 31
0.0
  0
LINE
  5
EB
330
70
100
AcDbEntity
  8
Line
 62
     3
370
    30
100
AcDbLine
 10
2142.548544202297
 20
1002.1348537873
 30
0.0
 11
2142.548544202297
 21
998.0348455741475
 31
0.0
  0
LINE
  5
EC
330
70
100
AcDbEntity
  8
Line
 62
     3
370
    30
100
AcDbLine
 10
2171.498602195166
 20
977.6951278295442
 30
0.0
 11
2171.498602195166
 21
822.0290529986476
 31
0.0
  0
LINE
  5
ED
330
70
100
AcDbEntity
  8
Line
 62
     3
370
    30
100
AcDbLine
 10
2173.352010907921
 20
974.0328784933122
 30
0.0
 11
2173.352010907921
 21
822.0283129971658
 31
0.0
  0
LINE
  5
EE
330
70
100
AcDbEntity
  8
Center
 62
     2
370
     9
100
AcDbLine
 10
2162.753759177462
 20
915.2346797085282
 30
0.0
 11
2135.343355268833
 21
915.2346797085282
 31
0.0
  0
LINE
  5
EF
330
70
100
AcDbEntity
  8
Center
 62
     2
370
     9
100
AcDbLine
 10
2149.048557223148
 20
899.7961242819528
 30
0.0
 11
2149.048557223148
 21
930.6732351351028
 31
0.0
  0
LINE
  5
F0
330
70
100
AcDbEntity
  8
Line
 62
     3
370
    30
100
AcDbLine
 10
2110.048479098037
 20
991.0486505793743
 30
0.0
 11
2112.036203079853
 21
987.4627023959885
 31
0.0
  0
ARC
  5
F1
330
70
100
AcDbEntity
  8
Line
 62
     3
370
    30
100
AcDbCircle
 10
2148.836205797765
 20
917.6594845659067
 30
0.0
 40
7.500015024059743
100
AcDbArc
 50
262.1345587234709
 51
355.6661030000055
  0
LINE
  5
F2
330
70
100
AcDbEntity
  8
Line
 62
     3
370
    30
100
AcDbLine
 10
2110.048479098037
 20
991.0486505793743
 30
0.0
 11
2110.048479098037
 21
989.3291238745302
 31
0.0
  0
ARC
  5
F3
330
70
100
AcDbEntity
  8
Line
 62
     3
370
    30
100
AcDbCircle
 10
2149.048557223148
 20
915.2346797085282
 30
0.0
 40
7.500015024059743
100
AcDbArc
 50
265.9501053689897
 51
126.1951478141794
  0
LINE
  5
F4
330
70
100
AcDbEntity
  8
Center
 62
     2
370
     9
100
AcDbLine
 10
2166.514915211824
 20
729.0343067112046
 30
0.0
 11
2133.582203240886
 21
729.0343067112046
 31
0.0
  0
LINE
  5
F5
330
70
100
AcDbEntity
  8
Center
 62
     2
370
     9
100
AcDbLine
 10
2150.048559226356
 20
743.9728611361759
 30
0.0
 11
2150.048559226356
 21
714.0957522862334
 31
0.0
  0
ARC
  5
F6
330
70
100
AcDbEntity
  8
Line
 62
     3
370
    30
100
AcDbCircle
 10
2149.836207800973
 20
731.4591115685836
 30
0.0
 40
7.500015024059743
100
AcDbArc
 50
194.3437000000098
 51
355.6661030000055
  0
CIRCLE
  5
F7
330
70
100
AcDbEntity
  8
Line
 62
     3
370
    30
100
AcDbCircle
 10
2150.048559226356
 20
729.0343067112046
 30
0.0
 40
7.500015024059743
  0
LINE
  5
F8
330
70
100
AcDbEntity
  8
Line
 62
     3
370
    30
100
AcDbLine
 10
2110.048479098037
 20
792.1344331136273
 30
0.0
 11
2115.048489114077
 21
792.1344331136273
 31
0.0
  0
ARC
  5
F9
330
70
100
AcDbEntity
  8
Line
 62
     3
370
    30
100
AcDbCircle
 10
2115.048489114077
 20
802.1344531457069
 30
0.0
 40
10.00002003207966
100
AcDbArc
 50
270.0
 51
0.0
  0
LINE
  5
FA
330
70
100
AcDbEntity
  8
Line
 62
     3
370
    30
100
AcDbLine
 10
2125.048509146157
 20
802.1344531457069
 30
0.0
 11
2125.048509146157
 21
822.1344932098663
 31
0.0
  0
LINE
  5
FB
330
70
100
AcDbEntity
  8
Line
 62
     3
370
    30
100
AcDbLine
 10
2110.048479098037
 20
667.4808364070496
 30
0.0
 11
2118.695733420251
 21
665.0506665389236
 31
0.0
  0
LINE
  5
FC
330
70
100
AcDbEntity
  8
Line
 62
     3
370
    30
100
AcDbLine
 10
2110.048479098037
 20
653.2203358403586
 30
0.0
 11
2126.859204773348
 21
643.9019981738273
 31
0.0
  0
LINE
  5
FD
330
70
100
AcDbEntity
  8
Line
 62
     3
370
    30
100
AcDbLine
 10
2125.048509146157
 20
669.8642021814171
 30
0.0
 11
2125.048509146157
 21
700.2776351057262
 31
0.0
  0
LINE
  5
FE
330
70
100
AcDbEntity
  8
Line
 62
     3
370
    30
100
AcDbLine
 10
2110.048479098037
 20
707.3336662403959
 30
0.0
 11
2121.010583057367
 21
705.1842119346003
 31
0.0
  0
LINE
  5
FF
330
70
100
AcDbEntity
  8
Line
 62
     3
370
    30
100
AcDbLine
 10
2110.048479098037
 20
653.2203358403586
 30
0.0
 11
2110.048479098037
 21
670.5803646160368
 31
0.0
  0
LINE
  5
100
330
70
100
AcDbEntity
  8
Line
 62
     3
370
    30
100
AcDbLine
 10
2110.052828106748
 20
670.5958396470365
 30
0.0
 11
2121.236843510613
 21
667.4527533507938
 31
0.0
  0
ARC
  5
101
330
70
100
AcDbEntity
  8
Line
 62
     3
370
    30
100
AcDbCircle
 10
2122.048503136533
 20
670.3408751362909
 30
0.0
 40
3.000006009623898
100
AcDbArc
 50
254.302845999993
 51
0.0
  0
ARC
  5
102
330
70
100
AcDbEntity
  8
Line
 62
     3
370
    30
100
AcDbCircle
 10
2120.048499130117
 20
669.8642021814171
 30
0.0
 40
5.000010016039829
100
AcDbArc
 50
254.302845999993
 51
0.0
  0
ARC
  5
103
330
70
100
AcDbEntity
  8
Line
 62
     3
370
    30
100
AcDbCircle
 10
2120.048499130117
 20
700.2776351057262
 30
0.0
 40
5.000010016039829
100
AcDbArc
 50
0.0
 51
78.90616600001158
  0
LINE
  5
104
330
70
100
AcDbEntity
  8
Center
 62
     2
370
     9
100
AcDbLine
 10
2188.653306559537
 20
776.0844009621392
 30
0.0
 11
2170.109700495542
 21
776.0844009621392
 31
0.0
  0
LINE
  5
105
330
70
100
AcDbEntity
  8
Center
 62
     2
370
     9
100
AcDbLine
 10
2173.352010907921
 20
868.1845854575934
 30
0.0
 11
2188.653306559537
 21
868.1845854575934
 31
0.0
  0
LINE
  5
106
330
70
100
AcDbEntity
  8
Line
 62
     3
370
    30
100
AcDbLine
 10
2141.924878952968
 20
998.0348455741475
 30
0.0
 11
2142.777852661648
 21
998.0348455741475
 31
0.0
  0
LINE
  5
107
330
70
100
AcDbEntity
  8
Line
 62
     3
370
    30
100
AcDbLine
 10
2110.048479098037
 20
991.0486505793743
 30
0.0
 11
2126.859204773348
 21
1000.366987245903
 31
0.0
  0
ARC
  5
108
330
70
100
AcDbEntity
  8
Line
 62
     3
370
    30
100
AcDbCircle
 10
2180.541408309752
 20
868.1845854575934
 30
0.0
 40
5.025671067444149
100
AcDbArc
 50
84.20759100000102
 51
275.7924089999988
  0
ARC
  5
109
330
70
100
AcDbEntity
  8
Hidden
 62
     3
370
     9
100
AcDbCircle
 10
2180.541408309752
 20
776.0844009621392
 30
0.0
 40
5.025671067444149
100
AcDbArc
 50
84.20759100000102
 51
275.7924089999988
  0
LINE
  5
10A
330
70
100
AcDbEntity
  8
Line
100
AcDbLine
 10
2042.512946242803
 20
1000.784851082969
 30
0.0
 11
2036.38605411882
 21
1000.784851082969
 31
0.0
  0
ARC
  5
10B
330
70
100
AcDbEntity
  8
Line
 62
     3
370
    30
100
AcDbCircle
 10
2133.694853466549
 20
988.0348255420679
 30
0.0
 40
10.00002003207966
100
AcDbArc
 50
90.0
 51
119.0002620000107
  0
ARC
  5
10C
330
70
100
AcDbEntity
  8
Line
 62
     3
370
    30
100
AcDbCircle
 10
2133.69503446691
 20
988.0348255420679
 30
0.0
 40
14.10002824523232
100
AcDbArc
 50
90.0
 51
118.9999999999973
  0
ARC
  5
10D
330
70
100
AcDbEntity
  8
Line
 62
     3
370
    30
100
AcDbCircle
 10
2166.048591277684
 20
987.1348237391806
 30
0.0
 40
15.00003004811949
100
AcDbArc
 50
0.0
 51
90.0
  0
ARC
  5
10E
330
70
100
AcDbEntity
  8
Line
 62
     3
370
    30
100
AcDbCircle
 10
2166.048591277684
 20
987.1348237391806
 30
0.0
 40
10.90002183496683
100
AcDbArc
 50
0.0
 51
90.0
  0
ARC
  5
10F
330
70
100
AcDbEntity
  8
Line
 62
     3
370
    30
100
AcDbCircle
 10
2166.048591277684
 20
987.1348237391806
 30
0.0
 40
15.00003004811949
100
AcDbArc
 50
299.136614999998
 51
0.0
  0
ARC
  5
110
330
70
100
AcDbEntity
  8
Line
 62
     3
370
    30
100
AcDbCircle
 10
2166.048591277684
 20
987.1348237391806
 30
0.0
 40
10.90002183496683
100
AcDbArc
 50
299.9999999999932
 51
0.0
  0
LINE
  5
111
330
70
100
AcDbEntity
  8
Line
 62
     3
370
    30
100
AcDbLine
 10
2171.498602195166
 20
977.6951278295442
 30
0.0
 11
2173.352010907921
 21
974.0328784933122
 31
0.0
  0
LINE
  5
112
330
70
100
AcDbEntity
  8
Center
 62
     2
370
     9
100
AcDbLine
 10
2166.048591277684
 20
987.1348237391806
 30
0.0
 11
2188.399748051609
 21
1000.039269589417
 31
0.0
  0
LINE
  5
113
330
70
100
AcDbEntity
  8
Line
 62
     3
370
    30
100
AcDbLine
 10
2180.796069819891
 20
989.8757692298538
 30
0.0
 11
2176.936551088488
 21
987.6474757661272
 31
0.0
  0
LINE
  5
114
330
70
100
AcDbEntity
  8
Line
 62
     3
370
    30
100
AcDbLine
 10
2175.796059803852
 20
998.5360405781433
 30
0.0
 11
2171.936541072448
 21
996.3077471144172
 31
0.0
  0
ARC
  5
115
330
70
100
AcDbEntity
  8
Line
 62
     3
370
    30
100
AcDbCircle
 10
2166.048591277684
 20
657.1341626805518
 30
0.0
 40
15.00003004811949
100
AcDbArc
 50
270.0
 51
0.0
  0
ARC
  5
116
330
70
100
AcDbEntity
  8
Line
 62
     3
370
    30
100
AcDbCircle
 10
2133.69503446691
 20
656.2341608776651
 30
0.0
 40
14.10002824523232
100
AcDbArc
 50
241.0000000000027
 51
270.0
  0
LINE
  5
117
330
70
100
AcDbEntity
  8
Line
 62
     3
370
    30
100
AcDbLine
 10
2166.048591277684
 20
642.1341326324323
 30
0.0
 11
2133.69503446691
 21
642.1341326324323
 31
0.0
  0
LINE
  5
118
330
70
100
AcDbEntity
  8
Line
100
AcDbLine
 10
2033.583379668597
 20
1000.390961347285
 30
0.0
 11
2033.583379668597
 21
922.9846952333895
 31
0.0
  0
LINE
  5
119
330
70
100
AcDbEntity
  8
Line
 62
     3
370
    30
100
AcDbLine
 10
2041.183964205802
 20
1003.634853792106
 30
0.0
 11
2041.1839642058
 21
1006.134861800132
 31
0.0
  0
LINE
  5
11A
330
70
100
AcDbEntity
  8
Line
100
AcDbLine
 10
2043.281717408028
 20
1006.134858800126
 30
0.0
 11
2041.183964205802
 21
1003.634853792106
 31
0.0
  0
LINE
  5
11B
330
70
100
AcDbEntity
  8
Line
100
AcDbLine
 10
2044.610699445031
 20
1003.284856090989
 30
0.0
 11
2042.512946242803
 21
1000.784851082969
 31
0.0
  0
LINE
  5
11C
330
70
100
AcDbEntity
  8
Line
100
AcDbLine
 10
2036.186741195344
 20
1003.634853792106
 30
0.0
 11
2033.186735185721
 21
1003.213230947509
 31
0.0
  0
LINE
  5
11D
330
70
100
AcDbEntity
  8
Line
100
AcDbLine
 10
2036.38605411882
 20
1000.784851082969
 30
0.0
 11
2033.583379668597
 21
1000.390961347285
 31
0.0
  0
LINE
  5
11E
330
70
100
AcDbEntity
  8
Line
100
AcDbLine
 10
2033.186735185721
 20
1003.213230947509
 30
0.0
 11
2033.583379668597
 21
1000.390961347285
 31
0.0
  0
LINE
  5
11F
330
70
100
AcDbEntity
  8
Line
100
AcDbLine
 10
2033.186735185721
 20
1003.213230947509
 30
0.0
 11
2033.186735185721
 21
922.9846952333895
 31
0.0
  0
ARC
  5
120
330
70
100
AcDbEntity
  8
Defpoints
100
AcDbCircle
 10
1829.135978430437
 20
822.1344932098663
 30
0.0
 40
327.7010064519516
100
AcDbArc
 50
333.4324023097833
 51
334.5546479462335
  0
ARC
  5
121
330
70
100
AcDbEntity
  8
Line
100
AcDbCircle
 10
1829.135978430437
 20
822.1344932098663
 30
0.0
 40
327.7010064519516
100
AcDbArc
 50
0.0
 51
26.56759769021669
  0
ARC
  5
122
330
70
100
AcDbEntity
  8
Line
100
AcDbCircle
 10
1829.135978430437
 20
822.1344932098663
 30
0.0
 40
330.5510121610943
100
AcDbArc
 50
333.4324023097833
 51
333.5354004849639
  0
ARC
  5
123
330
70
100
AcDbEntity
  8
Line
100
AcDbCircle
 10
1829.135978430437
 20
822.1344932098663
 30
0.0
 40
330.5510121610943
100
AcDbArc
 50
343.0057229884886
 51
344.9569314573524
  0
ARC
  5
124
330
70
100
AcDbEntity
  8
Line
100
AcDbCircle
 10
1829.135978430437
 20
822.1344932098663
 30
0.0
 40
330.5510121610943
100
AcDbArc
 50
0.0
 51
26.56759769021669
  0
LINE
  5
125
330
70
100
AcDbEntity
  8
Line
100
AcDbLine
 10
2066.271684164854
 20
1003.284856090989
 30
0.0
 11
2044.610699445031
 21
1003.284856090989
 31
0.0
  0
ARC
  5
126
330
70
100
AcDbEntity
  8
Line
100
AcDbCircle
 10
2066.271684164854
 20
940.7155207518494
 30
0.0
 40
62.5693353391399
100
AcDbArc
 50
26.56759769021669
 51
90.0
  0
ARC
  5
127
330
70
100
AcDbEntity
  8
Line
100
AcDbCircle
 10
2066.271684164854
 20
940.7155207518494
 30
0.0
 40
65.41934104828259
100
AcDbArc
 50
26.56759769021669
 51
90.0
  0
LINE
  5
128
330
70
100
AcDbEntity
  8
Defpoints
100
AcDbLine
 10
2066.271684164854
 20
640.9841303287436
 30
0.0
 11
2041.186751211384
 21
640.9841303287436
 31
0.0
  0
ARC
  5
129
330
70
100
AcDbEntity
  8
Defpoints
100
AcDbCircle
 10
2066.271684164854
 20
703.5534656678832
 30
0.0
 40
62.5693353391399
100
AcDbArc
 50
270.0
 51
333.4324023097833
  0
ARC
  5
12A
330
70
100
AcDbEntity
  8
Line
100
AcDbCircle
 10
2066.271684164854
 20
703.5534656678832
 30
0.0
 40
65.41934104828259
100
AcDbArc
 50
270.0
 51
312.0031957877808
  0
ARC
  5
12B
330
70
100
AcDbEntity
  8
Hidden
100
AcDbCircle
 10
2066.271684164854
 20
703.5534656678832
 30
0.0
 40
65.41934104828259
100
AcDbArc
 50
312.0031957877808
 51
326.6086081520358
  0
ARC
  5
12C
330
70
100
AcDbEntity
  8
Line
100
AcDbCircle
 10
2066.271684164854
 20
703.5534656678832
 30
0.0
 40
65.41934104828259
100
AcDbArc
 50
326.6086081520358
 51
333.4324023097833
  0
LINE
  5
12D
330
70
100
AcDbEntity
  8
Line
100
AcDbLine
 10
2036.186741195344
 20
1003.634853792106
 30
0.0
 11
2041.183964205802
 21
1003.634853792106
 31
0.0
  0
LINE
  5
12E
330
70
100
AcDbEntity
  8
Line
100
AcDbLine
 10
1048.09709214702
 20
1006.134861800132
 30
0.0
 11
1071.087058903845
 21
1006.134858800126
 31
0.0
  0
LINE
  5
12F
330
70
100
AcDbEntity
  8
Line
100
AcDbLine
 10
1048.09709214702
 20
1003.284856090989
 30
0.0
 11
1069.758076866842
 21
1003.284856090989
 31
0.0
  0
ARC
  5
130
330
70
100
AcDbEntity
  8
Line
100
AcDbCircle
 10
1048.09709214702
 20
940.7155207518494
 30
0.0
 40
62.5693353391399
100
AcDbArc
 50
90.0
 51
153.4324023097833
  0
ARC
  5
131
330
70
100
AcDbEntity
  8
Line
100
AcDbCircle
 10
1048.09709214702
 20
940.7155207518494
 30
0.0
 40
65.41934104828259
100
AcDbArc
 50
90.0
 51
153.4324023097833
  0
ARC
  5
132
330
70
100
AcDbEntity
  8
Line
100
AcDbCircle
 10
1285.232797881436
 20
822.1344932098663
 30
0.0
 40
327.7010064519516
100
AcDbArc
 50
153.4324023097833
 51
159.8287511339525
  0
ARC
  5
133
330
70
100
AcDbEntity
  8
Line
100
AcDbCircle
 10
1285.232797881436
 20
822.1344932098663
 30
0.0
 40
327.7010064519516
100
AcDbArc
 50
183.2362973112425
 51
191.28116227003
  0
ARC
  5
134
330
70
100
AcDbEntity
  8
Line
100
AcDbCircle
 10
1285.232797881443
 20
822.1344932098643
 30
0.0
 40
330.5510121611017
100
AcDbArc
 50
153.4324023097833
 51
160.010122415725
  0
ARC
  5
135
330
70
100
AcDbEntity
  8
Line
100
AcDbCircle
 10
1285.232797881436
 20
822.1344932098663
 30
0.0
 40
330.5510121610943
100
AcDbArc
 50
183.2083646772231
 51
203.3597682964342
  0
LINE
  5
136
330
70
100
AcDbEntity
  8
Line
100
AcDbLine
 10
1078.182035116529
 20
1003.634853792106
 30
0.0
 11
1081.182041126153
 21
1003.213230947509
 31
0.0
  0
LINE
  5
137
330
70
100
AcDbEntity
  8
Line
100
AcDbLine
 10
1081.182041126153
 20
1003.213230947509
 30
0.0
 11
1081.182041126153
 21
822.1344932098663
 31
0.0
  0
LINE
  5
138
330
70
100
AcDbEntity
  8
Line
100
AcDbLine
 10
1071.85583006907
 20
1000.784851082969
 30
0.0
 11
1077.982722193053
 21
1000.784851082969
 31
0.0
  0
LINE
  5
139
330
70
100
AcDbEntity
  8
Line
100
AcDbLine
 10
1077.982722193053
 20
1000.784851082969
 30
0.0
 11
1080.785396643277
 21
1000.390961347285
 31
0.0
  0
LINE
  5
13A
330
70
100
AcDbEntity
  8
Line
100
AcDbLine
 10
1081.182041126153
 20
1003.213230947509
 30
0.0
 11
1080.785396643277
 21
1000.390961347285
 31
0.0
  0
LINE
  5
13B
330
70
100
AcDbEntity
  8
Line
 62
     3
370
    30
100
AcDbLine
 10
2041.186751211384
 20
638.1341246196005
 30
0.0
 11
1073.18202510049
 21
638.1341246196005
 31
0.0
  0
LINE
  5
13C
330
70
100
AcDbEntity
  8
Center
 62
     2
370
     9
100
AcDbLine
 10
1073.184812106072
 20
1020.874064325761
 30
0.0
 11
1073.184812106072
 21
623.3949220939718
 31
0.0
  0
LINE
  5
13D
330
70
100
AcDbEntity
  8
Line
 62
     3
370
    30
100
AcDbLine
 10
1075.184816112489
 20
822.1344932098663
 30
0.0
 11
1075.184816112489
 21
638.1341246196005
 31
0.0
  0
LINE
  5
13E
330
70
100
AcDbEntity
  8
Line
 62
     3
370
    30
100
AcDbLine
 10
1071.184808099657
 20
822.1344932098663
 30
0.0
 11
1071.184808099657
 21
638.1341246196005
 31
0.0
  0
LINE
  5
13F
330
70
100
AcDbEntity
  8
Line
 62
     3
370
    30
100
AcDbLine
 10
1073.184812106072
 20
1003.634853792106
 30
0.0
 11
1073.184812106073
 21
1006.134861800132
 31
0.0
  0
LINE
  5
140
330
70
100
AcDbEntity
  8
Line
 62
     3
370
    30
100
AcDbLine
 10
1071.087058903845
 20
1006.134858800126
 30
0.0
 11
1073.184812106072
 21
1003.634853792106
 31
0.0
  0
LINE
  5
141
330
70
100
AcDbEntity
  8
Line
 62
     3
370
    30
100
AcDbLine
 10
2041.186751211384
 20
1003.634856792112
 30
0.0
 11
1073.184812106072
 21
1003.634856792112
 31
0.0
  0
LINE
  5
142
330
70
100
AcDbEntity
  8
Line
100
AcDbLine
 10
1048.09709214702
 20
638.1341246196005
 30
0.0
 11
1073.18202510049
 21
638.1341246196005
 31
0.0
  0
LINE
  5
143
330
70
100
AcDbEntity
  8
Line
100
AcDbLine
 10
1071.087058903845
 20
1006.134858800126
 30
0.0
 11
1073.184812106072
 21
1003.634853792106
 31
0.0
  0
LINE
  5
144
330
70
100
AcDbEntity
  8
Line
100
AcDbLine
 10
1069.758076866842
 20
1003.284856090989
 30
0.0
 11
1071.85583006907
 21
1000.784851082969
 31
0.0
  0
ARC
  5
147
330
70
100
AcDbEntity
  8
Line
100
AcDbCircle
 10
1048.09709214702
 20
703.5534656678832
 30
0.0
 40
65.41934104828259
100
AcDbArc
 50
215.2257600097947
 51
270.0
  0
LINE
  5
148
330
70
100
AcDbEntity
  8
Line
100
AcDbLine
 10
1078.182035116529
 20
1003.634853792106
 30
0.0
 11
1073.184812106072
 21
1003.634853792106
 31
0.0
  0
ARC
  5
149
330
70
100
AcDbEntity
  8
Line
 62
     3
370
     9
100
AcDbCircle
 10
999.0631326252314
 20
801.987082850494
 30
0.0
 40
36.07972027503829
100
AcDbArc
 50
265.0720739999916
 51
334.9252889999935
  0
ARC
  5
14A
330
70
100
AcDbEntity
  8
Line
 62
     3
370
     9
100
AcDbCircle
 10
959.7323498376512
 20
812.8850866814183
 30
0.0
 40
76.62448049446223
100
AcDbArc
 50
340.0147510000107
 51
6.933129784455273
  0
ARC
  5
14B
330
70
100
AcDbEntity
  8
Line
 62
     3
370
     9
100
AcDbCircle
 10
996.3311071524271
 20
696.2594320564461
 30
0.0
 40
69.78226478810867
100
AcDbArc
 50
90.30158999999683
 51
120.1829818700602
  0
LINE
  5
14C
330
70
100
AcDbEntity
  8
Line
100
AcDbLine
 10
955.1998900229516
 20
840.6345302692136
 30
0.0
 11
958.0544088359113
 21
840.6345302692136
 31
0.0
  0
LINE
  5
14D
330
70
100
AcDbEntity
  8
Line
100
AcDbLine
 10
955.1998900229516
 20
803.6344561505194
 30
0.0
 11
958.0544088359113
 21
803.6344561505194
 31
0.0
  0
ARC
  5
14E
330
70
100
AcDbEntity
  8
Hidden
370
     9
100
AcDbCircle
 10
1285.232797881436
 20
822.1344932098663
 30
0.0
 40
330.5510121610943
100
AcDbArc
 50
176.7916353227768
 51
180.0
  0
ARC
  5
150
330
70
100
AcDbEntity
  8
Hidden
370
     9
100
AcDbCircle
 10
1285.232797881436
 20
822.1344932098663
 30
0.0
 40
330.5510121610943
100
AcDbArc
 50
180.0
 51
183.2083646772426
  0
LINE
  5
151
330
70
100
AcDbEntity
  8
Line
 62
     4
370
     9
100
AcDbLine
 10
932.6812344308375
 20
808.1344651649548
 30
0.0
 11
958.6812865142446
 21
809.6336191680659
 31
0.0
  0
LINE
  5
152
330
70
100
AcDbEntity
  8
Line
 62
     3
370
    30
100
AcDbLine
 10
933.8482367685813
 20
834.8982917783581
 30
0.0
 11
958.6812865142446
 21
833.4664269100407
 31
0.0
  0
LINE
  5
153
330
70
100
AcDbEntity
  8
Line
 62
     3
370
    30
100
AcDbLine
 10
932.6812344308375
 20
841.1345312708174
 30
0.0
 11
932.6812344308375
 21
803.134455148915
 31
0.0
  0
LINE
  5
154
330
70
100
AcDbEntity
  8
Line
 62
     3
370
    30
100
AcDbLine
 10
934.6812384372539
 20
801.134451142499
 30
0.0
 11
955.3495308400583
 21
801.134451142499
 31
0.0
  0
LINE
  5
155
330
70
100
AcDbEntity
  8
Line
 62
     3
370
    30
100
AcDbLine
 10
934.6812384372539
 20
843.1345352772336
 30
0.0
 11
955.3494318398604
 21
843.1345352772336
 31
0.0
  0
ARC
  5
156
330
70
100
AcDbEntity
  8
Line
 62
     3
370
    30
100
AcDbCircle
 10
934.6812384372539
 20
841.1345312708174
 30
0.0
 40
2.000004006415931
100
AcDbArc
 50
90.0
 51
180.0
  0
ARC
  5
157
330
70
100
AcDbEntity
  8
Line
 62
     3
370
    30
100
AcDbCircle
 10
934.6812384372539
 20
803.134455148915
 30
0.0
 40
2.000004006415931
100
AcDbArc
 50
180.0
 51
270.0
  0
LINE
  5
158
330
70
100
AcDbEntity
  8
Line
 62
     3
370
    30
100
AcDbLine
 10
956.6812825078285
 20
840.3845297684116
 30
0.0
 11
955.1857715120151
 21
840.3845297684116
 31
0.0
  0
LINE
  5
159
330
70
100
AcDbEntity
  8
Line
 62
     3
370
    30
100
AcDbLine
 10
956.6812825078285
 20
803.8844566513208
 30
0.0
 11
955.1858465121654
 21
803.8844566513208
 31
0.0
  0
LINE
  5
15A
330
70
100
AcDbEntity
  8
Line
 62
     3
370
    30
100
AcDbLine
 10
956.6812825078285
 20
840.3845297684116
 30
0.0
 11
958.6812865142446
 21
838.3845257619956
 31
0.0
  0
LINE
  5
15B
330
70
100
AcDbEntity
  8
Line
 62
     3
370
    30
100
AcDbLine
 10
956.6812825078285
 20
803.8844566513208
 30
0.0
 11
958.6812865142446
 21
805.8844606577368
 31
0.0
  0
LINE
  5
15C
330
70
100
AcDbEntity
  8
Line
 62
     4
370
     9
100
AcDbLine
 10
932.6812344308375
 20
836.1345212547776
 30
0.0
 11
958.6812865142446
 21
834.6353672516665
 31
0.0
  0
LINE
  5
15D
330
70
100
AcDbEntity
  8
Line
 62
     3
370
    30
100
AcDbLine
 10
933.8482367685813
 20
809.3706946413742
 30
0.0
 11
958.6812865142446
 21
810.8025595096917
 31
0.0
  0
LINE
  5
15E
330
70
100
AcDbEntity
  8
Line
 62
     3
370
    30
100
AcDbLine
 10
933.8482367685813
 20
822.1344932098663
 30
0.0
 11
933.8482367685813
 21
809.3706946413742
 31
0.0
  0
LINE
  5
15F
330
70
100
AcDbEntity
  8
Line
 62
     3
370
    30
100
AcDbLine
 10
933.8482367685813
 20
809.3706946413742
 30
0.0
 11
932.6812344308375
 21
808.1344651649548
 31
0.0
  0
LINE
  5
160
330
70
100
AcDbEntity
  8
Line
 62
     3
370
    30
100
AcDbLine
 10
933.8482367685813
 20
822.1344932098663
 30
0.0
 11
933.8482367685813
 21
834.8982917783581
 31
0.0
  0
LINE
  5
161
330
70
100
AcDbEntity
  8
Line
 62
     3
370
    30
100
AcDbLine
 10
933.8482367685813
 20
834.8982917783581
 30
0.0
 11
932.6812344308375
 21
836.1345212547776
 31
0.0
  0
LINE
  5
162
330
70
100
AcDbEntity
  8
Line
 62
     3
370
    30
100
AcDbLine
 10
958.6812865142446
 20
838.3845257619956
 30
0.0
 11
958.6812865142446
 21
805.8844606577368
 31
0.0
  0
LINE
  5
163
330
70
100
AcDbEntity
  8
Line
 62
     3
370
     9
100
AcDbLine
 10
958.6812865142446
 20
838.3845257619956
 30
0.0
 11
958.0544088359113
 21
840.6345302692136
 31
0.0
  0
LINE
  5
164
330
70
100
AcDbEntity
  8
Line
 62
     3
370
     9
100
AcDbLine
 10
958.0552074499554
 20
803.6203378396475
 30
0.0
 11
958.6812865142446
 21
805.8844606577368
 31
0.0
  0
LINE
  5
165
330
70
100
AcDbEntity
  8
Line
 62
     3
370
    30
100
AcDbLine
 10
984.681845816581
 20
922.9846952333895
 30
0.0
 11
984.681845816581
 21
933.1347155659504
 31
0.0
  0
LINE
  5
166
330
70
100
AcDbEntity
  8
Line
 62
     3
370
    30
100
AcDbLine
 10
944.6817656882622
 20
933.1347155659504
 30
0.0
 11
944.6817656882622
 21
891.1346314312158
 31
0.0
  0
LINE
  5
167
330
70
100
AcDbEntity
  8
Line
 62
     3
370
    30
100
AcDbLine
 10
982.6818418101648
 20
889.1346274248
 30
0.0
 11
946.6817696946778
 21
889.1346274248
 31
0.0
  0
LINE
  5
168
330
70
100
AcDbEntity
  8
Line
 62
     3
370
    30
100
AcDbLine
 10
982.6818418101648
 20
935.1347195723663
 30
0.0
 11
946.6817696946778
 21
935.1347195723663
 31
0.0
  0
ARC
  5
169
330
70
100
AcDbEntity
  8
Line
 62
     3
370
    30
100
AcDbCircle
 10
946.6817696946778
 20
933.1347155659504
 30
0.0
 40
2.000004006415931
100
AcDbArc
 50
90.0
 51
180.0
  0
ARC
  5
16A
330
70
100
AcDbEntity
  8
Line
 62
     3
370
    30
100
AcDbCircle
 10
946.6817696946778
 20
891.1346314312158
 30
0.0
 40
2.000004006415931
100
AcDbArc
 50
180.0
 51
270.0
  0
LINE
  5
16B
330
70
100
AcDbEntity
  8
Line
 62
     3
370
    30
100
AcDbLine
 10
984.681845816581
 20
891.1346314312158
 30
0.0
 11
984.681845816581
 21
901.2846517637768
 31
0.0
  0
LINE
  5
16C
330
70
100
AcDbEntity
  8
Line
 62
     3
370
    30
100
AcDbLine
 10
982.6818418101648
 20
935.1347195723663
 30
0.0
 11
984.681845816581
 21
933.1347155659504
 31
0.0
  0
LINE
  5
16D
330
70
100
AcDbEntity
  8
Line
 62
     3
370
    30
100
AcDbLine
 10
984.681845816581
 20
891.1346314312158
 30
0.0
 11
982.6818418101648
 21
889.1346274248
 31
0.0
  0
LINE
  5
16E
330
70
100
AcDbEntity
  8
Line
 62
     3
370
    30
100
AcDbLine
 10
980.6818378037485
 20
923.1346955338707
 30
0.0
 11
980.6818378037485
 21
901.1346514632956
 31
0.0
  0
LINE
  5
16F
330
70
100
AcDbEntity
  8
Line
 62
     3
370
    30
100
AcDbLine
 10
978.6818337973329
 20
923.1783086212365
 30
0.0
 11
978.6818337973329
 21
901.0910383759297
 31
0.0
  0
LINE
  5
170
330
70
100
AcDbEntity
  8
Line
 62
     3
370
    30
100
AcDbLine
 10
975.6818277877089
 20
924.3472489628627
 30
0.0
 11
975.6818277877089
 21
899.9220980343038
 31
0.0
  0
LINE
  5
171
330
70
100
AcDbEntity
  8
Line
 62
     3
370
    30
100
AcDbLine
 10
984.681845816581
 20
901.1346514632956
 30
0.0
 11
980.6818378037485
 21
901.1346514632956
 31
0.0
  0
LINE
  5
172
330
70
100
AcDbEntity
  8
Line
 62
     3
370
    30
100
AcDbLine
 10
984.681845816581
 20
923.1346955338707
 30
0.0
 11
980.6818378037485
 21
923.1346955338707
 31
0.0
  0
LINE
  5
173
330
70
100
AcDbEntity
  8
Line
 62
     3
370
    30
100
AcDbLine
 10
980.6818378037485
 20
903.3846559705134
 30
0.0
 11
978.6818337973329
 21
903.3846559705134
 31
0.0
  0
LINE
  5
174
330
70
100
AcDbEntity
  8
Line
 62
     3
370
    30
100
AcDbLine
 10
980.6818378037485
 20
920.8846910266528
 30
0.0
 11
978.6818337973329
 21
920.8846910266528
 31
0.0
  0
LINE
  5
175
330
70
100
AcDbEntity
  8
Line
 62
     4
370
     9
100
AcDbLine
 10
944.6817656882622
 20
926.1347015434948
 30
0.0
 11
975.6818277877089
 21
924.3472489628627
 31
0.0
  0
LINE
  5
176
330
70
100
AcDbEntity
  8
Line
 62
     4
370
     9
100
AcDbLine
 10
944.6817656882622
 20
898.1346454536717
 30
0.0
 11
975.6818277877089
 21
899.9220980343038
 31
0.0
  0
LINE
  5
177
330
70
100
AcDbEntity
  8
Line
 62
     3
370
    30
100
AcDbLine
 10
975.6818277877089
 20
923.1783086212365
 30
0.0
 11
945.8567680420312
 21
924.8980110661515
 31
0.0
  0
LINE
  5
178
330
70
100
AcDbEntity
  8
Line
 62
     3
370
    30
100
AcDbLine
 10
975.6818277877089
 20
901.0910383759297
 30
0.0
 11
945.8567680420312
 21
899.3713359310149
 31
0.0
  0
LINE
  5
179
330
70
100
AcDbEntity
  8
Line
 62
     3
370
    30
100
AcDbLine
 10
945.8567680420312
 20
924.8980110661515
 30
0.0
 11
945.8567680420312
 21
899.3713359310149
 31
0.0
  0
LINE
  5
17A
330
70
100
AcDbEntity
  8
Line
 62
     3
370
    30
100
AcDbLine
 10
944.6817656882622
 20
926.1347015434948
 30
0.0
 11
945.8567680420312
 21
924.8980110661515
 31
0.0
  0
LINE
  5
17B
330
70
100
AcDbEntity
  8
Line
 62
     3
370
    30
100
AcDbLine
 10
945.8567680420312
 20
899.3713359310149
 30
0.0
 11
944.6817656882622
 21
898.1346454536717
 31
0.0
  0
LINE
  5
17C
330
70
100
AcDbEntity
  8
Line
 62
     3
370
    30
100
AcDbLine
 10
975.6818277877089
 20
923.1783086212365
 30
0.0
 11
978.6818337973329
 21
923.1783086212365
 31
0.0
  0
LINE
  5
17D
330
70
100
AcDbEntity
  8
Line
 62
     3
370
    30
100
AcDbLine
 10
975.6818277877089
 20
901.0910383759297
 30
0.0
 11
978.6818337973329
 21
901.0910383759297
 31
0.0
  0
LINE
  5
17E
330
70
100
AcDbEntity
  8
Line
 62
     4
370
     9
100
AcDbLine
 10
975.6818277877089
 20
924.3472489628627
 30
0.0
 11
978.6818337973329
 21
923.1783086212365
 31
0.0
  0
LINE
  5
17F
330
70
100
AcDbEntity
  8
Line
 62
     4
370
     9
100
AcDbLine
 10
975.6818277877089
 20
899.9220980343038
 30
0.0
 11
978.6818337973329
 21
901.0910383759297
 31
0.0
  0
ARC
  5
180
330
70
100
AcDbEntity
  8
Hidden
370
     9
100
AcDbCircle
 10
1285.232797881443
 20
822.1344932098643
 30
0.0
 40
330.5510121611017
100
AcDbArc
 50
160.010122415725
 51
168.3055601587132
  0
ARC
  5
181
330
70
100
AcDbEntity
  8
Line
100
AcDbCircle
 10
1285.232797881436
 20
822.1344932098663
 30
0.0
 40
327.7010064519516
100
AcDbArc
 50
168.2023984110073
 51
176.7637026887575
  0
ARC
  5
182
330
70
100
AcDbEntity
  8
Line
100
AcDbCircle
 10
1285.232797881443
 20
822.1344932098643
 30
0.0
 40
330.5510121611017
100
AcDbArc
 50
168.3055601587132
 51
176.7916353227768
  0
LINE
  5
183
330
70
100
AcDbEntity
  8
Center
 62
     2
370
     9
100
AcDbLine
 10
819.5066201198107
 20
995.270881037363
 30
0.0
 11
819.5066201198107
 21
647.0734625269175
 31
0.0
  0
LINE
  5
184
330
70
100
AcDbEntity
  8
Center
 62
     2
370
     9
100
AcDbLine
 10
795.0265515812406
 20
672.984194431398
 30
0.0
 11
843.9866886583809
 21
672.984194431398
 31
0.0
  0
LINE
  5
185
330
70
100
AcDbEntity
  8
Center
 62
     2
370
     9
100
AcDbLine
 10
793.551138625688
 20
971.2847919883344
 30
0.0
 11
845.4621016139341
 21
971.2847919883344
 31
0.0
  0
LINE
  5
186
330
70
100
AcDbEntity
  8
Line
 62
     3
370
    30
100
AcDbLine
 10
826.5536192363875
 20
662.1341726965916
 30
0.0
 11
994.6569709816857
 21
662.1341726965916
 31
0.0
  0
LINE
  5
187
330
70
100
AcDbEntity
  8
Line
 62
     3
370
    30
100
AcDbLine
 10
994.6569709816857
 20
982.1348137231408
 30
0.0
 11
826.5536192363875
 21
982.1348137231408
 31
0.0
  0
LINE
  5
188
330
70
100
AcDbEntity
  8
Line
 62
     3
370
    30
100
AcDbLine
 10
808.6565983850041
 20
971.2847919883344
 30
0.0
 11
808.6565983850041
 21
672.984194431398
 31
0.0
  0
CIRCLE
  5
189
330
70
100
AcDbEntity
  8
Line
 62
     3
370
    30
100
AcDbCircle
 10
819.5066201198107
 20
971.2847919883344
 30
0.0
 40
10.85002173480643
  0
ARC
  5
18A
330
70
100
AcDbEntity
  8
Line
 62
     3
370
    30
100
AcDbCircle
 10
819.5066201198107
 20
672.984194431398
 30
0.0
 40
10.85002173480643
100
AcDbArc
 50
180.0
 51
310.5032910000219
  0
LINE
  5
18B
330
70
100
AcDbEntity
  8
Line
 62
     3
370
    30
100
AcDbLine
 10
994.6569709816857
 20
982.1348137231408
 30
0.0
 11
994.6569709816857
 21
979.5348085148004
 31
0.0
  0
LINE
  5
18C
330
70
100
AcDbEntity
  8
Line
 62
     3
370
    30
100
AcDbLine
 10
994.6569709816857
 20
979.5348085148004
 30
0.0
 11
978.6569389303586
 21
979.5348085148004
 31
0.0
  0
LINE
  5
18D
330
70
100
AcDbEntity
  8
Line
 62
     3
370
    30
100
AcDbLine
 10
826.5536192363875
 20
979.5348085148004
 30
0.0
 11
826.5536192363875
 21
982.1348137231408
 31
0.0
  0
LINE
  5
18E
330
70
100
AcDbEntity
  8
Line
 62
     3
370
    30
100
AcDbLine
 10
826.5536192363875
 20
662.1341726965916
 30
0.0
 11
826.5536192363875
 21
691.0699036607622
 31
0.0
  0
LINE
  5
18F
330
70
100
AcDbEntity
  8
Line
 62
     3
370
    30
100
AcDbLine
 10
994.6569709816857
 20
662.1341726965916
 30
0.0
 11
994.6569709816857
 21
691.0699036607622
 31
0.0
  0
LINE
  5
190
330
70
100
AcDbEntity
  8
Center
 62
     2
370
     9
100
AcDbLine
 10
974.6569309175267
 20
998.7145999358341
 30
0.0
 11
974.6569309175267
 21
952.3386840354161
 31
0.0
  0
LINE
  5
191
330
70
100
AcDbEntity
  8
Line
 62
     3
370
    30
100
AcDbLine
 10
961.6569048758234
 20
976.3348021045345
 30
0.0
 11
984.0164696665921
 21
976.3348021045345
 31
0.0
  0
ARC
  5
192
330
70
100
AcDbEntity
  8
Line
 62
     3
370
    30
100
AcDbCircle
 10
1048.213483266303
 20
940.5347303896895
 30
0.0
 40
68.80013782070804
100
AcDbArc
 50
153.0779570000049
 51
153.4294890000134
  0
ARC
  5
193
330
70
100
AcDbEntity
  8
Line
 62
     3
370
    30
100
AcDbCircle
 10
1284.957552512959
 20
822.1344932098663
 30
0.0
 40
333.5006680698567
100
AcDbArc
 50
153.4294890000134
 51
154.2687319999925
  0
ARC
  5
194
330
70
100
AcDbEntity
  8
Line
 62
     3
370
    30
100
AcDbCircle
 10
984.0164696665921
 20
973.1347956942691
 30
0.0
 40
3.200006410265491
100
AcDbArc
 50
333.077957000005
 51
90.0
  0
LINE
  5
195
330
70
100
AcDbEntity
  8
Line
 62
     3
370
    30
100
AcDbLine
 10
984.5267366887608
 20
966.9240652529095
 30
0.0
 11
987.407289697021
 21
965.5358122952181
 31
0.0
  0
ARC
  5
196
330
70
100
AcDbEntity
  8
Line
 62
     3
370
    30
100
AcDbCircle
 10
984.0164696665921
 20
973.1347956942691
 30
0.0
 40
6.400012820530982
100
AcDbArc
 50
335.2742060000022
 51
90.0
  0
LINE
  5
197
330
70
100
AcDbEntity
  8
Line
 62
     3
370
    30
100
AcDbLine
 10
826.5536192363875
 20
691.0699036607622
 30
0.0
 11
994.6569709816857
 21
691.0699036607622
 31
0.0
  0
LINE
  5
198
330
70
100
AcDbEntity
  8
Line
 62
     3
370
    30
100
AcDbLine
 10
830.3566418546175
 20
971.2847919883344
 30
0.0
 11
830.3566418546175
 21
691.0699036607622
 31
0.0
  0
LINE
  5
199
330
70
100
AcDbEntity
  8
Line
 62
     3
370
    30
100
AcDbLine
 10
830.3566418546175
 20
714.7877361724185
 30
0.0
 11
972.5977944121074
 21
714.7877361724185
 31
0.0
  0
LINE
  5
19A
330
70
100
AcDbEntity
  8
Line
 62
     3
370
    30
100
AcDbLine
 10
961.6569048758234
 20
976.3348021045345
 30
0.0
 11
961.6569048758234
 21
979.5348085148004
 31
0.0
  0
ARC
  5
19B
330
70
100
AcDbEntity
  8
Line
 62
     3
370
    30
100
AcDbCircle
 10
974.6569309175267
 20
976.134801703893
 30
0.0
 40
12.00002403849559
100
AcDbArc
 50
70.52877899998906
 51
109.4712210000109
  0
LINE
  5
19C
330
70
100
AcDbEntity
  8
Line
 62
     3
370
    30
100
AcDbLine
 10
966.6569148918631
 20
987.4485323676031
 30
0.0
 11
966.6569148918631
 21
982.1348137231408
 31
0.0
  0
LINE
  5
19D
330
70
100
AcDbEntity
  8
Line
 62
     3
370
    30
100
AcDbLine
 10
966.6569148918631
 20
982.1348137231408
 30
0.0
 11
982.6569469431904
 21
982.1348137231408
 31
0.0
  0
LINE
  5
19E
330
70
100
AcDbEntity
  8
Line
 62
     3
370
    30
100
AcDbLine
 10
982.6569469431904
 20
982.1348137231408
 30
0.0
 11
982.6569469431904
 21
987.4485323676031
 31
0.0
  0
LINE
  5
19F
330
70
100
AcDbEntity
  8
Line
 62
     3
370
    30
100
AcDbLine
 10
968.6569188982787
 20
988.1348257423884
 30
0.0
 11
980.6569429367748
 21
988.1348257423884
 31
0.0
  0
LINE
  5
1A0
330
70
100
AcDbEntity
  8
Line
 62
     3
370
    30
100
AcDbLine
 10
978.6569389303586
 20
982.1348137231408
 30
0.0
 11
978.6569389303586
 21
987.4485323676031
 31
0.0
  0
LINE
  5
1A1
330
70
100
AcDbEntity
  8
Line
 62
     3
370
    30
100
AcDbLine
 10
970.656922904695
 20
982.1348137231408
 30
0.0
 11
970.656922904695
 21
987.4485323676031
 31
0.0
  0
ARC
  5
1A2
330
70
100
AcDbEntity
  8
Line
 62
     3
370
    30
100
AcDbCircle
 10
980.6569429367748
 20
984.8774602172207
 30
0.0
 40
3.257365525167497
100
AcDbArc
 50
52.12112100001702
 51
127.878878999983
  0
ARC
  5
1A3
330
70
100
AcDbEntity
  8
Line
 62
     3
370
    30
100
AcDbCircle
 10
968.6569188982787
 20
984.8774602172207
 30
0.0
 40
3.257365525167497
100
AcDbArc
 50
52.12112100001702
 51
127.878878999983
  0
LINE
  5
1A4
330
70
100
AcDbEntity
  8
Line
 62
     3
370
    30
100
AcDbLine
 10
970.656922904695
 20
962.934775261548
 30
0.0
 11
971.4569245072611
 21
962.1347736589815
 31
0.0
  0
LINE
  5
1A5
330
70
100
AcDbEntity
  8
Line
 62
     3
370
    30
100
AcDbLine
 10
971.4569245072611
 20
962.1347736589815
 30
0.0
 11
977.8569373277923
 21
962.1347736589815
 31
0.0
  0
LINE
  5
1A6
330
70
100
AcDbEntity
  8
Line
 62
     3
370
    30
100
AcDbLine
 10
970.656922904695
 20
962.934775261548
 30
0.0
 11
978.6569389303586
 21
962.934775261548
 31
0.0
  0
LINE
  5
1A7
330
70
100
AcDbEntity
  8
Line
 62
     3
370
    30
100
AcDbLine
 10
977.8569373277923
 20
962.1347736589815
 30
0.0
 11
978.6569389303586
 21
962.934775261548
 31
0.0
  0
LINE
  5
1A8
330
70
100
AcDbEntity
  8
Line
 62
     4
370
     9
100
AcDbLine
 10
971.4569245072611
 20
979.134807713517
 30
0.0
 11
970.656922904695
 21
980.5204514892437
 31
0.0
  0
LINE
  5
1A9
330
70
100
AcDbEntity
  8
Line
 62
     4
370
     9
100
AcDbLine
 10
977.8569373277923
 20
979.134807713517
 30
0.0
 11
978.6569389303586
 21
980.5204514892437
 31
0.0
  0
LINE
  5
1AA
330
70
100
AcDbEntity
  8
Line
 62
     3
370
    30
100
AcDbLine
 10
970.656922904695
 20
979.134807713517
 30
0.0
 11
978.6569389303586
 21
979.134807713517
 31
0.0
  0
LINE
  5
1AB
330
70
100
AcDbEntity
  8
Line
 62
     3
370
    30
100
AcDbLine
 10
970.656922904695
 20
982.1348137231408
 30
0.0
 11
970.656922904695
 21
976.3348021045345
 31
0.0
  0
LINE
  5
1AC
330
70
100
AcDbEntity
  8
Line
 62
     3
370
    30
100
AcDbLine
 10
978.6569389303586
 20
976.3348021045345
 30
0.0
 11
978.6569389303586
 21
982.1348137231408
 31
0.0
  0
LINE
  5
1AD
330
70
100
AcDbEntity
  8
Line
 62
     4
370
     9
100
AcDbLine
 10
971.4569245072611
 20
979.134807713517
 30
0.0
 11
971.4569245072611
 21
976.3348021045345
 31
0.0
  0
LINE
  5
1AE
330
70
100
AcDbEntity
  8
Line
 62
     4
370
     9
100
AcDbLine
 10
977.8569373277923
 20
962.1347736589815
 30
0.0
 11
977.8569373277923
 21
965.1347796686055
 31
0.0
  0
LINE
  5
1AF
330
70
100
AcDbEntity
  8
Line
 62
     3
370
    30
100
AcDbLine
 10
970.656922904695
 20
979.5348085148004
 30
0.0
 11
826.5536192363875
 21
979.5348085148004
 31
0.0
  0
LINE
  5
1B0
330
70
100
AcDbEntity
  8
Line
 62
     3
370
    30
100
AcDbLine
 10
982.6569469431904
 20
973.1347956942691
 30
0.0
 11
966.6569148918631
 21
973.1347956942691
 31
0.0
  0
LINE
  5
1B1
330
70
100
AcDbEntity
  8
Line
 62
     3
370
    30
100
AcDbLine
 10
982.6569469431904
 20
965.8210720433888
 30
0.0
 11
982.6569469431904
 21
976.3348021045345
 31
0.0
  0
LINE
  5
1B2
330
70
100
AcDbEntity
  8
Line
 62
     3
370
    30
100
AcDbLine
 10
966.6569148918631
 20
965.8210720433888
 30
0.0
 11
966.6569148918631
 21
976.3348021045345
 31
0.0
  0
LINE
  5
1B3
330
70
100
AcDbEntity
  8
Line
 62
     3
370
    30
100
AcDbLine
 10
978.6569389303586
 20
973.1347956942691
 30
0.0
 11
978.6569389303586
 21
965.8210720433888
 31
0.0
  0
LINE
  5
1B4
330
70
100
AcDbEntity
  8
Line
 62
     3
370
    30
100
AcDbLine
 10
970.656922904695
 20
973.1347956942691
 30
0.0
 11
970.656922904695
 21
965.8210720433888
 31
0.0
  0
ARC
  5
1B5
330
70
100
AcDbEntity
  8
Line
 62
     3
370
    30
100
AcDbCircle
 10
974.6569309175267
 20
977.1348037071007
 30
0.0
 40
12.00002403849559
100
AcDbArc
 50
250.528778999989
 51
289.471221000011
  0
ARC
  5
1B6
330
70
100
AcDbEntity
  8
Line
 62
     3
370
    30
100
AcDbCircle
 10
968.6569188982787
 20
968.3921451937731
 30
0.0
 40
3.257365525167497
100
AcDbArc
 50
232.1211210000169
 51
307.8788789999829
  0
ARC
  5
1B7
330
70
100
AcDbEntity
  8
Line
 62
     3
370
    30
100
AcDbCircle
 10
980.6569429367748
 20
968.3921451937731
 30
0.0
 40
3.257365525167497
100
AcDbArc
 50
232.1211210000169
 51
307.8788789999829
  0
LINE
  5
1B8
330
70
100
AcDbEntity
  8
Line
 62
     3
370
    30
100
AcDbLine
 10
968.6569188982787
 20
965.1347796686055
 30
0.0
 11
980.6569429367748
 21
965.1347796686055
 31
0.0
  0
LINE
  5
1B9
330
70
100
AcDbEntity
  8
Line
 62
     3
370
    30
100
AcDbLine
 10
978.6569389303586
 20
962.934775261548
 30
0.0
 11
978.6569389303586
 21
965.1347796686055
 31
0.0
  0
LINE
  5
1BA
330
70
100
AcDbEntity
  8
Line
 62
     3
370
    30
100
AcDbLine
 10
970.656922904695
 20
965.1347796686055
 30
0.0
 11
970.656922904695
 21
962.934775261548
 31
0.0
  0
LINE
  5
1BB
330
70
100
AcDbEntity
  8
Line
 62
     4
370
     9
100
AcDbLine
 10
971.4569245072611
 20
965.1347796686055
 30
0.0
 11
971.4569245072611
 21
962.1347736589815
 31
0.0
  0
LINE
  5
1BC
330
70
100
AcDbEntity
  8
Line
 62
     4
370
     9
100
AcDbLine
 10
977.8569373277923
 20
976.3348021045345
 30
0.0
 11
977.8569373277923
 21
979.134807713517
 31
0.0
  0
LINE
  5
1BD
330
70
100
AcDbEntity
  8
Line
 62
     3
370
    30
100
AcDbLine
 10
979.1569399319628
 20
982.1348137231408
 30
0.0
 11
979.1569399319628
 21
976.3348021045345
 31
0.0
  0
LINE
  5
1BE
330
70
100
AcDbEntity
  8
Line
 62
     3
370
    30
100
AcDbLine
 10
970.1569219030908
 20
982.1348137231408
 30
0.0
 11
970.1569219030908
 21
976.3348021045345
 31
0.0
  0
CIRCLE
  5
1BF
330
70
100
AcDbEntity
  8
Line
 62
     3
370
    30
100
AcDbCircle
 10
819.5066201198107
 20
971.2847919883344
 30
0.0
 40
8.050016125824125
  0
LINE
  5
1C1
330
70
100
AcDbEntity
  8
Line
 62
     3
370
    30
100
AcDbLine
 10
1123.109660136579
 20
901.2846517637774
 30
0.0
 11
2128.686926492082
 21
901.2846517637768
 31
0.0
  0
LINE
  5
1C2
330
70
100
AcDbEntity
  8
Line
 62
     3
370
    30
100
AcDbLine
 10
1104.912629217937
 20
922.9846952333899
 30
0.0
 11
2128.686926492082
 21
922.9846952333895
 31
0.0
  0
LINE
  5
1C3
330
70
100
AcDbEntity
  8
Line
100
AcDbLine
 10
2033.583379668597
 20
901.2846517637768
 30
0.0
 11
2033.583379668597
 21
822.1344932098663
 31
0.0
  0
LINE
  5
1C4
330
70
100
AcDbEntity
  8
Line
100
AcDbLine
 10
2033.186735185721
 20
901.2846517637768
 30
0.0
 11
2033.186735185721
 21
822.0844931097056
 31
0.0
  0
LINE
  5
1C5
330
70
100
AcDbEntity
  8
Hidden
100
AcDbLine
 10
2033.186735185721
 20
922.9846952333895
 30
0.0
 11
2033.186735185721
 21
901.2846517637768
 31
0.0
  0
LINE
  5
1C6
330
70
100
AcDbEntity
  8
Hidden
100
AcDbLine
 10
2033.583379668597
 20
922.9846952333895
 30
0.0
 11
2033.583379668597
 21
901.2846517637768
 31
0.0
  0
LINE
  5
1C9
330
70
100
AcDbEntity
  8
0
  6
Continuous
 62
     4
370
     9
390
82
100
AcDbLine
 10
2326.594614894181
 20
827.5000001897915
 30
0.0
 11
2386.594614894181
 21
827.5000001897915
 31
0.0
  0
LINE
  5
1CA
330
70
100
AcDbEntity
  8
0
  6
Continuous
 62
     4
370
     9
390
82
100
AcDbLine
 10
1171.594614894181
 20
10.00000018979142
 30
0.0
 11
1171.594614894181
 21
-49.99999981020858
 31
0.0
  0
LINE
  5
1CB
330
70
100
AcDbEntity
  8
0
  6
Continuous
 62
     4
370
     9
390
82
100
AcDbLine
 10
1171.594614894181
 20
1645.000000189791
 30
0.0
 11
1171.594614894181
 21
1693.000000189791
 31
0.0
  0
LINE
  5
1CC
330
70
100
AcDbEntity
  8
0
  6
Continuous
 62
     4
370
    40
390
82
100
AcDbLine
 10
16.59461489418118
 20
1645.000000189791
 30
0.0
 11
2326.594614894181
 21
1645.000000189791
 31
0.0
  0
LINE
  5
1CD
330
70
100
AcDbEntity
  8
0
  6
Continuous
 62
     4
370
     9
390
82
100
AcDbLine
 10
16.59461489418118
 20
827.5000001897915
 30
0.0
 11
-43.40538510581882
 21
827.5000001897915
 31
0.0
  0
LINE
  5
1CE
330
70
100
AcDbEntity
  8
0
  6
Continuous
 62
     4
370
    40
390
82
100
AcDbLine
 10
16.59461489418118
 20
10.00000018979142
 30
0.0
 11
16.59461489418118
 21
1645.000000189791
 31
0.0
  0
LINE
  5
1CF
330
70
100
AcDbEntity
  8
0
  6
Continuous
 62
     4
370
    40
390
82
100
AcDbLine
 10
16.59461489418118
 20
10.00000018979142
 30
0.0
 11
2326.594614894181
 21
10.00000018979142
 31
0.0
  0
LINE
  5
1D0
330
70
100
AcDbEntity
  8
0
  6
Continuous
 62
     4
370
    40
390
82
100
AcDbLine
 10
2326.594614894181
 20
10.00000018979142
 30
0.0
 11
2326.594614894181
 21
1645.000000189791
 31
0.0
  0
LINE
  5
1D1
330
70
100
AcDbEntity
  8
Line
370
     9
390
82
100
AcDbLine
 10
54.624889674423
 20
45.94270437738301
 30
0.0
 11
554.7888241744232
 21
45.94270437738301
 31
0.0
  0
DIMENSION
  5
209
330
70
100
AcDbEntity
  8
Size
100
AcDbDimension
  2
*D42
 10
736.0289605604541
 20
982.1348137231412
 30
0.0
 11
720.2789605604542
 21
822.1344932098661
 31
0.0
 70
    32
 71
     5
 42
320.0006410265495
  3
設計
100
AcDbAlignedDimension
 13
819.5066201198104
 23
662.1341726965915
 33
0.0
 14
819.5066201198104
 24
982.1348137231408
 34
0.0
 50
90.0
100
AcDbRotatedDimension
1001
ACAD_DIMASSOC_CALC_DIMLFAC
1040
-6.0
1001
ACAD_DIMASSOC_DIMLFAC
1040
-6.0
1001
ACAD_DIMASSOC_OVERRIDDEN_DIMLFAC
1040
0.0
1001
ACAD
1000
DSTYLE
1002
{
1070
     3
1000
%%c<>
1070
    40
1040
6.0
1002
}
  0
DIMENSION
  5
24C
330
70
100
AcDbEntity
  8
Size
100
AcDbDimension
  2
*D46
 10
309.4184885203947
 20
930.3024250287451
 30
0.0
 11
356.8305970900293
 21
869.2295014912318
 31
0.0
 70
   163
 71
     5
 42
45.99999999999954
  3
設計$3
100
AcDbDiametricDimension
 15
337.6267322391778
 25
893.9665613909879
 35
0.0
 40
0.0
1001
ACAD_DIMASSOC_CALC_DIMLFAC
1040
-6.0
1001
ACAD_DIMASSOC_DIMLFAC
1040
-6.0
1001
ACAD_DIMASSOC_OVERRIDDEN_DIMLFAC
1040
0.0
1001
ACAD
1000
DSTYLE
1002
{
1070
    40
1040
6.0
1070
   144
1040
1.0
1070
   288
1070
     1
1002
}
  0
DIMENSION
  5
258
330
70
100
AcDbEntity
  8
Size
100
AcDbDimension
  2
*D47
 10
310.2963175214573
 20
838.4459976538382
 30
0.0
 11
357.5777438334715
 21
780.1355395635326
 31
0.0
 70
   163
 71
     5
 42
42.00000000000085
  3
設計$3
100
AcDbDiametricDimension
 15
336.7489032381167
 25
805.8229887658944
 35
0.0
 40
0.0
1001
ACAD_DIMASSOC_CALC_DIMLFAC
1040
-6.0
1001
ACAD_DIMASSOC_DIMLFAC
1040
-6.0
1001
ACAD_DIMASSOC_OVERRIDDEN_DIMLFAC
1040
0.0
1001
ACAD
1000
DSTYLE
1002
{
1070
    40
1040
6.0
1070
   144
1040
1.0
1070
   288
1070
     1
1002
}
  0
DIMENSION
  5
264
330
70
100
AcDbEntity
  8
Size
100
AcDbDimension
  2
*D48
 10
418.6865443797894
 20
912.1344932098663
 30
0.0
 11
402.9365443797896
 21
867.134492959866
 31
0.0
 70
    32
 71
     5
 42
90.00000049999982
  3
設計
100
AcDbAlignedDimension
 13
323.5226103797874
 23
822.1344927098661
 33
0.0
 14
361.0084993797872
 24
912.134493209866
 34
0.0
 50
90.0
100
AcDbRotatedDimension
1001
ACAD_DIMASSOC_CALC_DIMLFAC
1040
-6.0
1001
ACAD_DIMASSOC_DIMLFAC
1040
-6.0
1001
ACAD_DIMASSOC_OVERRIDDEN_DIMLFAC
1040
0.0
1001
ACAD
1000
DSTYLE
1002
{
1070
    40
1040
6.0
1070
    75
1070
     1
1070
   144
1040
1.0
1002
}
  0
LEADER
  5
328
330
70
100
AcDbEntity
  8
Size
100
AcDbLeader
  3
設計
 73
     0
 75
     1
 40
24.00000000000002
 41
166.4000000000001
 76
     3
 10
323.522610379787
 20
638.1344932098661
 30
0.0
 10
271.6311535779254
 20
559.561772555529
 30
0.0
 10
271.6302470598486
 20
559.561772555529
 30
0.0
340
329
1001
ACAD
1000
DSTYLE
1002
{
1070
    40
1040
0.9065180767902331
1070
   147
1040
0.625
1070
    77
1070
     1
1002
}
  0
MTEXT
  5
329
102
{ACAD_REACTORS
330
328
102
}
330
70
100
AcDbEntity
  8
Size
100
AcDbMText
 10
271.0636732618547
 20
560.1283463535229
 30
0.0
 40
24.0
 41
223.0654730636714
 71
     9
 72
     1
  1
長手継手位置
 73
     1
 44
1.0
  0
LEADER
  5
32C
330
70
100
AcDbEntity
  8
Size
100
AcDbLeader
  3
設計
 73
     0
 75
     1
 40
24.00000000000001
 41
51.2
 76
     3
 10
225.4091339274471
 20
862.9439085032528
 30
0.0
 10
124.1673240717354
 20
961.149639402965
 30
0.0
 10
124.1664175536586
 20
961.149639402965
 30
0.0
340
333
1001
ACAD
1000
DSTYLE
1002
{
1070
    40
1040
0.9065180767902331
1070
   341
1005
32D
1070
   147
1040
0.625
1070
    77
1070
     1
1002
}
  0
MTEXT
  5
333
102
{ACAD_REACTORS
330
32C
102
}
330
70
100
AcDbEntity
  8
Size
100
AcDbMText
 10
123.5998437556647
 20
961.7162132009589
 30
0.0
 40
24.0
 41
84.32463744403012
 71
     9
 72
     1
  1
刻印
 73
     1
 44
1.0
  0
DIMENSION
  5
347
330
70
100
AcDbEntity
  8
Size
100
AcDbDimension
  2
*D60
 10
2258.662507347187
 20
642.1341326324326
 30
0.0
 11
2242.912507347187
 21
822.1344932098658
 31
0.0
 70
    32
 71
     5
 42
360.0007211548679
  3
設計
100
AcDbAlignedDimension
 13
2166.048591277684
 23
1002.1348537873
 33
0.0
 14
2166.048591277684
 24
642.1341326324323
 34
0.0
 50
90.0
100
AcDbRotatedDimension
1001
ACAD_DIMASSOC_CALC_DIMLFAC
1040
-5.999987980776281
1001
ACAD_DIMASSOC_DIMLFAC
1040
-5.999987980776281
1001
ACAD_DIMASSOC_OVERRIDDEN_DIMLFAC
1040
0.0
1001
ACAD
1000
DSTYLE
1002
{
1070
    40
1040
6.0
1070
     3
1000
%%c<>
1070
   144
1040
1.0
1002
}
  0
DIMENSION
  5
372
330
70
100
AcDbEntity
  8
Size
100
AcDbDimension
  2
*D63
 10
1666.974025406773
 20
638.1341246196008
 30
0.0
 11
1666.974025406773
 21
732.4414085197837
 31
0.0
 70
   160
 71
     5
 42
368.0007371805315
  3
設計
100
AcDbAlignedDimension
 13
1557.184388155937
 23
1006.134861800132
 33
0.0
 14
1557.184388155937
 24
638.1341246196005
 34
0.0
 50
90.0
100
AcDbRotatedDimension
1001
ACAD_DIMASSOC_CALC_DIMLFAC
1040
-5.999987980776281
1001
ACAD_DIMASSOC_DIMLFAC
1040
-5.999987980776281
1001
ACAD_DIMASSOC_OVERRIDDEN_DIMLFAC
1040
0.0
1001
ACAD
1000
DSTYLE
1002
{
1070
    40
1040
6.0
1070
    76
1070
     1
1070
    75
1070
     1
1070
     3
1000
%%c<>
1070
   144
1040
1.0
1002
}
  0
DIMENSION
  5
3CA
330
70
100
AcDbEntity
  8
Size
100
AcDbDimension
  2
*D68
 10
2181.048621325802
 20
1091.448371677778
 30
0.0
 11
1556.86492787832
 21
1107.198371677778
 31
0.0
 70
    32
 71
     5
 42
1248.367386894965
  3
設計
100
AcDbAlignedDimension
 13
932.6812344308372
 23
841.1345312708174
 33
0.0
 14
2181.048621325802
 24
990.8848237391804
 34
0.0
100
AcDbRotatedDimension
1001
ACAD_DIMASSOC_CALC_DIMLFAC
1040
-5.999987980776281
1001
ACAD_DIMASSOC_DIMLFAC
1040
-5.999987980776281
1001
ACAD_DIMASSOC_OVERRIDDEN_DIMLFAC
1040
0.0
1001
ACAD
1000
DSTYLE
1002
{
1070
    40
1040
6.0
1070
   271
1070
     0
1002
}
  0
DIMENSION
  5
3D9
330
70
100
AcDbEntity
  8
Size
100
AcDbDimension
  2
*D69
 10
2180.796069694624
 20
1127.380700672156
 30
0.0
 11
1494.726334039814
 21
1143.130700672156
 31
0.0
 70
    32
 71
     5
 42
1372.139471309619
  3
設計
100
AcDbAlignedDimension
 13
808.6565983850041
 23
971.2847919883344
 33
0.0
 14
2180.796069694624
 24
989.8757691575307
 34
0.0
100
AcDbRotatedDimension
1001
ACAD_DIMASSOC_CALC_DIMLFAC
1040
-5.999987980776281
1001
ACAD_DIMASSOC_DIMLFAC
1040
-5.999987980776281
1001
ACAD_DIMASSOC_OVERRIDDEN_DIMLFAC
1040
0.0
1001
ACAD
1000
DSTYLE
1002
{
1070
     3
1000
約<>
1070
    40
1040
6.0
1070
   271
1070
     0
1002
}
  0
LINE
  5
408
330
70
100
AcDbEntity
  8
Line
 62
     7
370
     9
100
AcDbLine
 10
54.62488967442337
 20
87.94270437738303
 30
0.0
 11
554.7888241744232
 21
87.94270437738303
 31
0.0
  0
LINE
  5
409
330
70
100
AcDbEntity
  8
Line
 62
     7
370
     9
100
AcDbLine
 10
54.62488967442337
 20
129.942704377383
 30
0.0
 11
554.7888241744239
 21
129.942704377383
 31
0.0
  0
LINE
  5
40A
330
70
100
AcDbEntity
  8
Line
 62
     7
370
     9
100
AcDbLine
 10
54.62488967442337
 20
171.9427043773833
 30
0.0
 11
554.7888241744232
 21
171.9427043773833
 31
0.0
  0
LINE
  5
40B
330
70
100
AcDbEntity
  8
Line
 62
     7
370
     9
100
AcDbLine
 10
54.62488967442337
 20
213.9427043773833
 30
0.0
 11
554.7888241744232
 21
213.9427043773833
 31
0.0
  0
LINE
  5
40C
330
70
100
AcDbEntity
  8
Line
 62
     7
370
     9
100
AcDbLine
 10
185.9363641744231
 20
259.3372478773832
 30
0.0
 11
423.4773481744236
 21
259.3372478773832
 31
0.0
  0
LINE
  5
40D
330
70
100
AcDbEntity
  8
Line
 62
     7
370
     9
100
AcDbLine
 10
185.9363641744231
 20
265.3372478773832
 30
0.0
 11
423.4773481744236
 21
265.3372478773832
 31
0.0
  0
MTEXT
  5
40E
102
{ACAD_XDICTIONARY
360
E9D
102
}
330
70
100
AcDbEntity
  8
Text
100
AcDbMText
 10
54.62488967442474
 20
75.94270437738302
 30
0.0
 40
24.0
 41
208.3773410821085
 71
     1
 72
     5
  1
\pi6;充填ガス
 73
     1
 44
1.0
1001
ACAD
1000
ACAD_MTEXT_DEFINED_HEIGHT_BEGIN
1070
    46
1040
23.99999999999999
1000
ACAD_MTEXT_DEFINED_HEIGHT_END
  0
MTEXT
  5
412
330
70
100
AcDbEntity
  8
Text
100
AcDbMText
 10
54.62488967442474
 20
117.942704377383
 30
0.0
 40
24.0
 41
208.3773410821083
 71
     1
 72
     5
  1
\pi1;計算刻印質量
 73
     1
 44
1.0
  0
MTEXT
  5
413
330
70
100
AcDbEntity
  8
Text
100
AcDbMText
 10
54.62488967442474
 20
159.942704377383
 30
0.0
 40
24.0
 41
208.3773410821085
 71
     1
 72
     5
  1
\pi1;内容積
 73
     1
 44
1.0
  0
MTEXT
  5
414
330
70
100
AcDbEntity
  8
Text
100
AcDbMText
 10
54.62488967442474
 20
201.9427043773834
 30
0.0
 40
24.0
 41
208.3773410821083
 71
     1
 72
     5
  1
\pi1;耐圧試験圧力
 73
     1
 44
1.0
1001
ACAD
1000
ACAD_MTEXT_DEFINED_HEIGHT_BEGIN
1070
    46
1040
21.86786389280435
1000
ACAD_MTEXT_DEFINED_HEIGHT_END
  0
MTEXT
  5
415
102
{ACAD_XDICTIONARY
360
E9F
102
}
330
70
100
AcDbEntity
  8
Text
100
AcDbMText
 10
54.62488967442405
 20
243.9427043773833
 30
0.0
 40
24.0
 41
208.3773410821083
 71
     1
 72
     5
  1
\pi6;最高充填圧力
 73
     1
 44
1.0
  0
MTEXT
  5
416
330
70
100
AcDbEntity
  8
Text
100
AcDbMText
 10
304.7068561744237
 20
295.3372478773832
 30
0.0
 40
24.0
 41
237.540984
 71
     2
 72
     5
  1
要　　　　目
 73
     1
 44
1.0
  0
MTEXT
  5
417
330
70
100
AcDbEntity
  8
Text
100
AcDbMText
 10
446.9061805669597
 20
201.942704377383
 30
0.0
 40
24.0
 41
71.15067147942546
 71
     1
 72
     5
  1
MPa
 73
     1
 44
1.0
  0
MTEXT
  5
418
330
70
100
AcDbEntity
  8
Text
100
AcDbMText
 10
446.906180566959
 20
243.9427043773829
 30
0.0
 40
24.0
 41
71.15067147942546
 71
     1
 72
     5
  1
MPa
 73
     1
 44
1.0
  0
MTEXT
  5
419
330
70
100
AcDbEntity
  8
Text
100
AcDbMText
 10
446.9061805669597
 20
117.9427043773827
 30
0.0
 40
24.0
 41
71.15067147942546
 71
     1
 72
     5
  1
kg
 73
     1
 44
1.0
  0
MTEXT
  5
41A
102
{ACAD_XDICTIONARY
360
EF5
102
}
330
70
100
AcDbEntity
  8
Text
100
AcDbMText
 10
446.9061805669597
 20
159.942704377383
 30
0.0
 40
24.0
 41
71.15067147942546
 71
     1
 72
     5
  1
\U+2113
 73
     1
 44
1.0
  0
MTEXT
  5
41B
330
70
100
AcDbEntity
  8
Text
100
AcDbMText
 10
292.9114260282286
 20
243.9427043773829
 30
0.0
 40
24.0
 41
113.6780987708257
 71
     1
 72
     5
  1
 1.80
 73
     1
 44
1.0
  0
MTEXT
  5
41C
330
70
100
AcDbEntity
  8
Text
100
AcDbMText
 10
292.9114260282294
 20
201.942704377383
 30
0.0
 40
24.0
 41
113.6780987708256
 71
     1
 72
     5
  1
 3.0
 73
     1
 44
1.0
1001
ACAD
1000
ACAD_MTEXT_DEFINED_HEIGHT_BEGIN
1070
    46
1040
23.99999999999996
1000
ACAD_MTEXT_DEFINED_HEIGHT_END
  0
MTEXT
  5
41D
330
70
100
AcDbEntity
  8
Text
100
AcDbMText
 10
309.220130208722
 20
75.94270437738268
 30
0.0
 40
24.0
 41
284.3071645156285
 71
     1
 72
     5
  1
ＬＰガス
 73
     1
 44
1.0
1001
ACAD
1000
ACAD_MTEXT_DEFINED_HEIGHT_BEGIN
1070
    46
1040
24.00000000000009
1000
ACAD_MTEXT_DEFINED_HEIGHT_END
  0
MTEXT
  5
41E
330
70
100
AcDbEntity
  8
Text
390
82
100
AcDbMText
 10
292.9114260282294
 20
159.942704377383
 30
0.0
 40
24.0
 41
113.6780987708257
 71
     1
 72
     5
  1
117.5
 73
     1
 44
1.0
  0
MTEXT
  5
41F
330
70
100
AcDbEntity
  8
Text
390
82
100
AcDbMText
 10
388.6619711084303
 20
168.0942437226293
 30
0.0
 40
18.0
 41
35.94991055055175
 71
     1
 72
     5
  1
+1
 73
     1
 44
1.0
  0
MTEXT
  5
420
330
70
100
AcDbEntity
  8
Text
390
82
100
AcDbMText
 10
388.6619711084303
 20
147.8337745248041
 30
0.0
 40
18.0
 41
35.94991055055175
 71
     1
 72
     5
  1
-0
 73
     1
 44
1.0
  0
MTEXT
  5
421
330
70
100
AcDbEntity
  8
Text
390
82
100
AcDbMText
 10
263.7138588588907
 20
117.9427043773827
 30
0.0
 40
24.0
 41
113.6780987708257
 71
     1
 72
     5
  1
約 35.5
 73
     1
 44
1.0
  0
LINE
  5
422
330
70
100
AcDbEntity
  8
0
  6
Continuous
 62
     4
370
    40
390
82
100
AcDbLine
 10
1702.594614894181
 20
12.41569045124245
 30
0.0
 11
1702.594614894181
 21
108.4156904512425
 31
0.0
  0
TEXT
  5
423
330
70
100
AcDbEntity
  8
0
 62
     7
370
    30
390
82
100
AcDbText
 10
1743.223901039262
 20
-29.85256354875757
 30
0.0
 40
24.0
  1
中国工業株式会社
 41
1.258928571428571
 72
     5
 11
2025.223901039262
 21
-29.85256354875757
 31
0.0
100
AcDbText
1001
AcDbBlockRepETag
1070
     1
1071
       26
1005
0
  0
TEXT
  5
424
330
70
100
AcDbEntity
  8
0
 62
     7
370
    30
390
82
100
AcDbText
 10
1743.823901039262
 20
-29.85256354875757
 30
0.0
 40
24.0
  1
中国工業株式会社
 41
1.25892857142857
 72
     5
 11
2025.823901039262
 21
-29.85256354875757
 31
0.0
100
AcDbText
1001
AcDbBlockRepETag
1070
     1
1071
       27
1005
0
  0
TEXT
  5
425
330
70
100
AcDbEntity
  8
0
 62
     7
370
    30
390
82
100
AcDbText
 10
1744.423901039261
 20
-29.85256354875757
 30
0.0
 40
24.0
  1
中国工業株式会社
 41
1.258928571428574
 72
     5
 11
2026.423901039262
 21
-29.85256354875757
 31
0.0
100
AcDbText
1001
AcDbBlockRepETag
1070
     1
1071
       28
1005
0
  0
LINE
  5
426
330
70
100
AcDbEntity
  8
0
 62
     7
390
82
100
AcDbLine
 10
1683.102725039261
 20
-10.38430954875757
 30
0.0
 11
1689.670835039262
 21
-10.38430954875757
 31
0.0
1001
AcDbBlockRepETag
1070
     1
1071
       29
1005
0
  0
LINE
  5
427
330
70
100
AcDbEntity
  8
0
 62
     7
390
82
100
AcDbLine
 10
1689.670835039262
 20
-24.78430954875756
 30
0.0
 11
1683.102725039261
 21
-24.78430954875756
 31
0.0
1001
AcDbBlockRepETag
1070
     1
1071
       30
1005
0
  0
LINE
  5
428
330
70
100
AcDbEntity
  8
0
 62
     7
390
82
100
AcDbLine
 10
1715.988887039262
 20
-24.78430954875756
 30
0.0
 11
1722.557003039262
 21
-24.78430954875756
 31
0.0
1001
AcDbBlockRepETag
1070
     1
1071
       31
1005
0
  0
LINE
  5
429
330
70
100
AcDbEntity
  8
0
 62
     7
390
82
100
AcDbLine
 10
1722.557003039262
 20
-10.38430954875757
 30
0.0
 11
1715.988887039262
 21
-10.38430954875757
 31
0.0
1001
AcDbBlockRepETag
1070
     1
1071
       32
1005
0
  0
ARC
  5
42A
330
70
100
AcDbEntity
  8
0
 62
     7
390
82
100
AcDbCircle
 10
1702.829862372926
 20
-17.58431145778724
 30
0.0
 40
20.99999809264812
100
AcDbArc
 50
200.051038921231
 51
339.9489606452769
1001
AcDbBlockRepETag
1070
     1
1071
       33
1005
0
  0
ARC
  5
42B
330
70
100
AcDbEntity
  8
0
 62
     7
390
82
100
AcDbCircle
 10
1702.829861039262
 20
-17.58430954875754
 30
0.0
 40
15.0
100
AcDbArc
 50
208.6854019999963
 51
331.3145980000035
1001
AcDbBlockRepETag
1070
     1
1071
       36
1005
0
  0
TEXT
  5
42C
330
70
100
AcDbEntity
  8
0
 62
     7
370
    30
390
82
100
AcDbText
 10
1678.431627074745
 20
-23.25256354875756
 30
0.0
 40
10.8
  1
ＣＫＫ
 41
1.475694444444444
 72
     5
 11
1729.431627074745
 21
-23.25256354875756
 31
0.0
100
AcDbText
1001
AcDbBlockRepETag
1070
     1
1071
       38
1005
0
  0
TEXT
  5
42D
330
70
100
AcDbEntity
  8
0
 62
     7
370
    30
390
82
100
AcDbText
 10
1677.531627074745
 20
-23.25256354875756
 30
0.0
 40
10.8
  1
ＣＫＫ
 41
1.475694444444444
 72
     5
 11
1728.531627074745
 21
-23.25256354875756
 31
0.0
100
AcDbText
1001
AcDbBlockRepETag
1070
     1
1071
       39
1005
0
  0
TEXT
  5
42E
330
70
100
AcDbEntity
  8
0
 62
     7
370
    30
390
82
100
AcDbText
 10
1676.631627074745
 20
-23.25256354875756
 30
0.0
 40
10.8
  1
ＣＫＫ
 41
1.475694444444444
 72
     5
 11
1727.631627074745
 21
-23.25256354875756
 31
0.0
100
AcDbText
1001
AcDbBlockRepETag
1070
     1
1071
       40
1005
0
  0
TEXT
  5
42F
330
70
100
AcDbEntity
  8
0
 62
     7
370
    30
390
82
100
AcDbText
 10
1675.731627074745
 20
-23.25256354875756
 30
0.0
 40
10.8
  1
ＣＫＫ
 41
1.475694444444444
 72
     5
 11
1726.731627074745
 21
-23.25256354875756
 31
0.0
100
AcDbText
1001
AcDbBlockRepETag
1070
     1
1071
       41
1005
0
  0
ARC
  5
430
330
70
100
AcDbEntity
  8
0
 62
     7
390
82
100
AcDbCircle
 10
1702.829861039262
 20
-17.58430954875754
 30
0.0
 40
21.0
100
AcDbArc
 50
20.05104300000136
 51
159.9489569999986
1001
AcDbBlockRepETag
1070
     1
1071
       42
1005
0
  0
ARC
  5
431
330
70
100
AcDbEntity
  8
0
 62
     7
390
82
100
AcDbCircle
 10
1702.829861039262
 20
-17.58430954875754
 30
0.0
 40
15.0
100
AcDbArc
 50
28.68540199999634
 51
151.3145980000037
1001
AcDbBlockRepETag
1070
     1
1071
       43
1005
0
  0
TEXT
  5
432
330
70
100
AcDbEntity
  8
0
 62
     7
370
    30
390
82
100
AcDbText
 10
1745.023901039261
 20
-29.85256354875757
 30
0.0
 40
24.0
  1
中国工業株式会社
 41
1.258928571428571
 72
     5
 11
2027.023901039262
 21
-29.85256354875757
 31
0.0
100
AcDbText
1001
AcDbBlockRepETag
1070
     1
1071
       45
1005
0
  0
TEXT
  5
433
330
70
100
AcDbEntity
  8
0
 62
     7
370
    30
390
82
100
AcDbText
 10
1745.623901039262
 20
-29.85256354875757
 30
0.0
 40
24.0
  1
中国工業株式会社
 41
1.258928571428572
 72
     5
 11
2027.623901039262
 21
-29.85256354875757
 31
0.0
100
AcDbText
1001
AcDbBlockRepETag
1070
     1
1071
       46
1005
0
  0
TEXT
  5
434
330
70
100
AcDbEntity
  8
0
 62
     7
370
    30
390
82
100
AcDbText
 10
1746.223901039262
 20
-29.85256354875757
 30
0.0
 40
24.0
  1
中国工業株式会社
 41
1.258928571428571
 72
     5
 11
2028.223901039262
 21
-29.85256354875757
 31
0.0
100
AcDbText
1001
AcDbBlockRepETag
1070
     1
1071
       47
1005
0
  0
TEXT
  5
435
330
70
100
AcDbEntity
  8
0
 62
     7
370
    30
390
82
100
AcDbText
 10
1746.823901039262
 20
-29.85256354875757
 30
0.0
 40
24.0
  1
中国工業株式会社
 41
1.25892857142857
 72
     5
 11
2028.823901039262
 21
-29.85256354875757
 31
0.0
100
AcDbText
1001
AcDbBlockRepETag
1070
     1
1071
       48
1005
0
  0
TEXT
  5
436
330
70
100
AcDbEntity
  8
0
 62
     7
370
    30
390
82
100
AcDbText
 10
1747.423901039261
 20
-29.85256354875757
 30
0.0
 40
24.0
  1
中国工業株式会社
 41
1.258928571428574
 72
     5
 11
2029.423901039262
 21
-29.85256354875757
 31
0.0
100
AcDbText
1001
AcDbBlockRepETag
1070
     1
1071
       49
1005
0
  0
TEXT
  5
437
330
70
100
AcDbEntity
  8
0
 62
     7
370
    30
390
82
100
AcDbText
 10
1748.023901039261
 20
-29.85256354875757
 30
0.0
 40
24.0
  1
中国工業株式会社
 41
1.258928571428571
 72
     5
 11
2030.023901039262
 21
-29.85256354875757
 31
0.0
100
AcDbText
1001
AcDbBlockRepETag
1070
     1
1071
       50
1005
0
  0
TEXT
  5
438
330
70
100
AcDbEntity
  8
0
 62
     7
370
    30
390
82
100
AcDbText
 10
1742.623901039262
 20
-29.85256354875757
 30
0.0
 40
24.0
  1
中国工業株式会社
 41
1.258928571428572
 72
     5
 11
2024.623901039262
 21
-29.85256354875757
 31
0.0
100
AcDbText
1001
AcDbBlockRepETag
1070
     1
1071
       51
1005
0
  0
HATCH
  5
439
330
70
100
AcDbEntity
  8
0
 62
     7
390
82
100
AcDbHatch
 10
0.0
 20
0.0
 30
0.0
210
0.0
220
0.0
230
1.0
  2
SOLID
 70
     1
 71
     0
 91
        1
 92
        1
 93
        4
 72
     2
 10
1702.829861039262
 20
-17.58430954875754
 40
15.0
 50
28.68540200000055
 51
151.3145979999994
 73
     1
 72
     1
 10
1689.670835039262
 20
-10.38430954875757
 11
1683.102725039261
 21
-10.38430954875757
 72
     2
 10
1702.829861039262
 20
-17.58430954875754
 40
21.0
 50
200.0510430000003
 51
339.9489569999997
 73
     0
 72
     1
 10
1722.557003039262
 20
-10.38430954875757
 11
1715.988887039262
 21
-10.38430954875757
 97
        0
 75
     0
 76
     1
 98
        1
 10
1227.126881039261
 20
-68.58430954875756
450
        0
451
        0
460
0.0
461
0.0
452
        0
462
0.0
453
        0
470

1001
ACAD
1010
0.0
1020
0.0
1030
0.0
1001
AcDbBlockRepETag
1070
     1
1071
      139
1005
0
  0
HATCH
  5
43A
330
70
100
AcDbEntity
  8
0
 62
     7
390
82
100
AcDbHatch
 10
0.0
 20
0.0
 30
0.0
210
0.0
220
0.0
230
1.0
  2
SOLID
 70
     1
 71
     0
 91
        1
 92
        1
 93
        4
 72
     2
 10
1702.829861039262
 20
-17.58430954875754
 40
15.0
 50
208.6854020000005
 51
331.3145979999994
 73
     1
 72
     1
 10
1715.988887039262
 20
-24.78430954875756
 11
1722.557003039262
 21
-24.78430954875756
 72
     2
 10
1702.829862372926
 20
-17.58431145778724
 40
20.99999809264812
 50
20.05103935472679
 51
159.948961078768
 73
     0
 72
     1
 10
1683.102725039261
 20
-24.78430954875756
 11
1689.670835039262
 21
-24.78430954875756
 97
        0
 75
     0
 76
     1
 98
        1
 10
1227.126881039261
 20
-68.58430954875756
450
        0
451
        0
460
0.0
461
0.0
452
        0
462
0.0
453
        0
470

1001
ACAD
1010
0.0
1020
0.0
1030
0.0
1001
AcDbBlockRepETag
1070
     1
1071
      140
1005
0
  0
LINE
  5
43B
330
70
100
AcDbEntity
  8
0
  6
Continuous
 62
     4
370
     9
390
82
100
AcDbLine
 10
1738.594614894181
 20
12.41569045124245
 30
0.0
 11
1738.594614894181
 21
108.4156904512425
 31
0.0
  0
LINE
  5
43C
330
70
100
AcDbEntity
  8
0
  6
Continuous
 62
     4
370
    40
390
82
100
AcDbLine
 10
1702.594614894181
 20
108.4156904512425
 30
0.0
 11
2326.594614894181
 21
108.4156904512425
 31
0.0
  0
TEXT
  5
43D
330
70
100
AcDbEntity
  8
0
 62
     4
370
    30
390
82
100
AcDbText
 10
1710.994614894181
 20
74.8156904512425
 30
0.0
 40
19.2
  1
名
 41
1.08372288357531
 72
     5
 11
1729.027763676874
 21
74.8156904512425
 31
0.0
100
AcDbText
1001
AcDbBlockRepETag
1070
     1
1071
       22
1005
0
  0
TEXT
  5
43E
330
70
100
AcDbEntity
  8
0
 62
     4
370
    30
390
82
100
AcDbText
 10
1710.994614894181
 20
26.81569045124251
 30
0.0
 40
19.2
  1
称
 41
1.071428571428586
 72
     5
 11
1730.194614894181
 21
26.81569045124251
 31
0.0
100
AcDbText
1001
AcDbBlockRepETag
1070
     1
1071
       23
1005
0
  0
TEXT
  5
440
330
70
100
AcDbEntity
  8
Text
100
AcDbText
 10
2199.861264348196
 20
-28.87030373505061
 30
0.0
 40
24.0
  1
2022年6月
 11
2199.861264348196
 21
-16.87030373505061
 31
0.0
100
AcDbText
 73
     2
  0
MTEXT
  5
441
330
70
100
AcDbEntity
  8
Text
 62
     2
100
AcDbMText
 10
2014.620402903468
 20
84.41569045124248
 30
0.0
 40
24.0
 41
557.9484239814258
 71
     5
 72
     5
  1
５０ｋｇ型 ＬＰガス容器
 73
     1
 44
1.0
  0
MTEXT
  5
442
330
70
100
AcDbEntity
  8
Text
 62
     2
100
AcDbMText
 10
2015.381911010299
 20
35.32884605587316
 30
0.0
 40
24.0
 41
560.510022956701
 71
     5
 72
     5
  1
(サイホン管付)
 73
     1
 44
1.0
1001
ACAD
1000
ACAD_MTEXT_DEFINED_HEIGHT_BEGIN
1070
    46
1040
21.82631120926133
1000
ACAD_MTEXT_DEFINED_HEIGHT_END
  0
VIEWPORT
  5
BCC
102
{ACAD_XDICTIONARY
360
BCD
102
}
330
6C
100
AcDbEntity
 67
     1
  8
0
100
AcDbViewport
 10
148.5
 20
105.0
 30
0.0
 40
360.3255892255892
 41
222.18
 68
     1
 69
     1
 12
148.5
 22
105.0
 13
0.0
 23
0.0
 14
10.0
 24
10.0
 15
10.0
 25
10.0
 16
0.0
 26
0.0
 36
1.0
 17
0.0
 27
0.0
 37
0.0
 42
50.0
 43
0.0
 44
0.0
 45
222.18
 50
0.0
 51
0.0
 72
  1000
 90
   819232
  1

281
     0
 71
     1
 74
     0
110
0.0
120
0.0
130
0.0
111
1.0
121
0.0
131
0.0
112
0.0
122
1.0
132
0.0
 79
     0
146
0.0
170
     0
  0
ENDSEC
  0
SECTION
  2
OBJECTS
  0
DICTIONARY
  5
C
330
0
100
AcDbDictionary
281
     1
  3
ACAD_2007HEADERVARS_RT
350
EA2
  3
ACAD_CIP_PREVIOUS_PRODUCT_INFO
350
BB5
  3
ACAD_COLOR
350
63
  3
ACAD_DETAILVIEWSTYLE
350
6A
  3
ACAD_GROUP
350
D
  3
ACAD_LAST_SAVED_VERSION_INFO
350
BA1
  3
ACAD_LAYOUT
350
62
  3
ACAD_MATERIAL
350
10
  3
ACAD_MLEADERSTYLE
350
66
  3
ACAD_MLINESTYLE
350
5F
  3
ACAD_PLOTSETTINGS
350
61
  3
ACAD_PLOTSTYLENAME
350
E
  3
ACAD_SCALELIST
350
42
  3
ACAD_SECTIONVIEWSTYLE
350
68
  3
ACAD_TABLESTYLE
350
64
  3
ACAD_VISUALSTYLE
350
29
  3
ACDB_RECOMPOSE_DATA
350
EA1
  3
AcDbVariableDictionary
350
BA2
  3
AcDsDecomposeData
350
EAE
  0
DICTIONARY
  5
BB9
330
2
100
AcDbDictionary
280
     1
281
     1
  3
ACAD_LAYERSTATES
360
BBA
  0
DICTIONARY
  5
E99
330
54
100
AcDbDictionary
280
     1
281
     1
  3
ADSK_XREC_LAYER_RECONCILED
360
E9A
  0
DICTIONARY
  5
96
330
95
100
AcDbDictionary
280
     1
281
     1
  3
ADSK_XREC_LAYER_RECONCILED
360
97
  0
DICTIONARY
  5
9B
330
9A
100
AcDbDictionary
280
     1
281
     1
  3
ADSK_XREC_LAYER_RECONCILED
360
9C
  0
DICTIONARY
  5
B0
330
AF
100
AcDbDictionary
280
     1
281
     1
  3
ADSK_XREC_LAYER_RECONCILED
360
B1
  0
DICTIONARY
  5
D4
330
D3
100
AcDbDictionary
280
     1
281
     1
  3
ADSK_XREC_LAYER_RECONCILED
360
D5
  0
DICTIONARY
  5
20B
330
20A
100
AcDbDictionary
280
     1
281
     1
  3
ADSK_XREC_LAYER_RECONCILED
360
20C
  0
DICTIONARY
  5
410
330
40F
100
AcDbDictionary
280
     1
281
     1
  3
ADSK_XREC_LAYER_RECONCILED
360
411
  0
DICTIONARY
  5
1C7
330
70
100
AcDbDictionary
280
     1
281
     1
  3
ACAD_SORTENTS
360
A3C
  0
DICTIONARY
  5
7F
330
7E
100
AcDbDictionary
280
     1
281
     1
  3
ACAD_SORTENTS
360
A3B
  0
DICTIONARY
  5
8C
330
8B
100
AcDbDictionary
280
     1
281
     1
  0
DICTIONARY
  5
32E
330
32D
100
AcDbDictionary
280
     1
281
     1
  0
DICTIONARY
  5
EFB
330
E33
100
AcDbDictionary
280
     1
281
     1
  3
ACAD_MTEXT_2008_RT
360
EFC
  0
DICTIONARY
  5
EFD
330
E3B
100
AcDbDictionary
280
     1
281
     1
  3
ACAD_MTEXT_2008_RT
360
EFE
  0
DICTIONARY
  5
E9D
330
40E
100
AcDbDictionary
280
     1
281
     1
  3
ACAD_MTEXT_2008_RT
360
E9E
  0
DICTIONARY
  5
E9F
330
415
100
AcDbDictionary
280
     1
281
     1
  3
ACAD_MTEXT_2008_RT
360
EA0
  0
DICTIONARY
  5
EF5
330
41A
100
AcDbDictionary
280
     1
281
     1
  3
ACAD_MTEXT_2008_RT
360
EF6
  0
DICTIONARY
  5
BCD
330
BCC
100
AcDbDictionary
280
     1
281
     1
  3
ASDK_XREC_ANNOTATION_SCALE_INFO
360
BCE
  0
DICTIONARY
  5
EA2
102
{ACAD_REACTORS
330
C
102
}
330
C
100
AcDbDictionary
281
     1
  3
DIMARCSYM
350
EA4
  3
DIMFXL
350
EA3
  3
DIMJOGANG
350
EA5
  3
DIMLTEX1
350
EA7
  3
DIMLTEX2
350
EA8
  3
DIMLTYPE
350
EA6
  0
XRECORD
  5
BB5
102
{ACAD_REACTORS
330
C
102
}
330
C
100
AcDbXrecord
280
     1
300
ACD
300
2026
300

  0
DICTIONARY
  5
63
102
{ACAD_REACTORS
330
C
102
}
330
C
100
AcDbDictionary
281
     1
  0
DICTIONARY
  5
6A
102
{ACAD_REACTORS
330
C
102
}
330
C
100
AcDbDictionary
281
     1
  3
Imperial24
350
6B
  3
Metric50
350
BAF
  0
DICTIONARY
  5
D
102
{ACAD_REACTORS
330
C
102
}
330
C
100
AcDbDictionary
281
     1
  0
XRECORD
  5
BA1
102
{ACAD_REACTORS
330
C
102
}
330
C
100
AcDbXrecord
280
     1
300
{35A2CFD7-2292-3747-9910-F1A691874F48}
301
{42A4A2DE-818C-3649-9F08-09CC6C03EC4C}
302
{35A2CFD7-2292-3747-9910-F1A691874F48}
303
C:\Users\CKK004820\Desktop\HP掲載図_50㎏容器(サイホン)_レイアウト.dxf
  0
DICTIONARY
  5
62
102
{ACAD_REACTORS
330
C
102
}
330
C
100
AcDbDictionary
281
     1
  3
Model
350
73
  3
レイアウト1
350
6F
  0
DICTIONARY
  5
10
102
{ACAD_REACTORS
330
C
102
}
330
C
100
AcDbDictionary
281
     1
  3
ByBlock
350
19
  3
ByLayer
350
11
  3
Global
350
21
  0
DICTIONARY
  5
66
102
{ACAD_REACTORS
330
C
102
}
330
C
100
AcDbDictionary
281
     1
  3
Standard
350
67
  0
DICTIONARY
  5
5F
102
{ACAD_REACTORS
330
C
102
}
330
C
100
AcDbDictionary
281
     1
  3
Standard
350
60
  0
DICTIONARY
  5
61
102
{ACAD_REACTORS
330
C
102
}
330
C
100
AcDbDictionary
281
     1
  0
ACDBDICTIONARYWDFLT
  5
E
102
{ACAD_REACTORS
330
C
102
}
330
C
100
AcDbDictionary
281
     1
  3
Normal
350
F
  3
Style_1
350
82
100
AcDbDictionaryWithDefault
340
F
  0
DICTIONARY
  5
42
102
{ACAD_REACTORS
330
C
102
}
330
C
100
AcDbDictionary
281
     1
  3
A0
350
43
  3
A1
350
44
  3
A2
350
45
  3
A3
350
46
  3
A4
350
47
  3
A5
350
48
  3
A6
350
49
  3
A7
350
4A
  3
A8
350
4B
  3
A9
350
4C
  3
B0
350
4D
  3
B1
350
4E
  3
B2
350
4F
  3
B3
350
50
  3
B4
350
51
  3
B5
350
52
  3
B6
350
53
  0
DICTIONARY
  5
68
102
{ACAD_REACTORS
330
C
102
}
330
C
100
AcDbDictionary
281
     1
  3
Imperial24
350
69
  3
Metric50
350
BAE
  0
DICTIONARY
  5
64
102
{ACAD_REACTORS
330
C
102
}
330
C
100
AcDbDictionary
281
     1
  3
Standard
350
65
  0
DICTIONARY
  5
29
102
{ACAD_REACTORS
330
C
102
}
330
C
100
AcDbDictionary
281
     1
  3
2dWireframe
350
2F
  3
Basic
350
2E
  3
Brighten
350
35
  3
ColorChange
350
39
  3
Conceptual
350
32
  3
Dim
350
34
  3
EdgeColorOff
350
41
  3
Facepattern
350
38
  3
Flat
350
2A
  3
FlatWithEdges
350
2B
  3
Gouraud
350
2C
  3
GouraudWithEdges
350
2D
  3
Hidden
350
31
  3
JitterOff
350
3F
  3
Linepattern
350
37
  3
OverhangOff
350
40
  3
Realistic
350
33
  3
Shaded
350
3E
  3
Shaded with edges
350
3D
  3
Shades of Gray
350
3A
  3
Sketchy
350
3B
  3
Thicken
350
36
  3
Wireframe
350
30
  3
X-Ray
350
3C
  0
XRECORD
  5
EA1
102
{ACAD_REACTORS
330
C
102
}
330
C
100
AcDbXrecord
280
     1
 90
        1
330
65
330
40E
330
415
  0
DICTIONARY
  5
BA2
102
{ACAD_REACTORS
330
C
102
}
330
C
100
AcDbDictionary
281
     1
  3
ANNOALLVISIBLE
350
BA8
  3
CANNOSCALE
350
BA9
  3
CMLEADERSTYLE
350
BA4
  3
CTABLESTYLE
350
BA3
  3
CVIEWDETAILSTYLE
350
BA5
  3
CVIEWSECTIONSTYLE
350
BA6
  3
LAYEREVAL
350
BAB
  3
LAYERNOTIFY
350
BAC
  3
LIGHTINGUNITS
350
BAA
  3
MSLTSCALE
350
BA7
  0
DICTIONARY
  5
EAE
102
{ACAD_REACTORS
330
C
102
}
330
C
100
AcDbDictionary
281
     1
  3
AcDsRecords
350
EB0
  3
AcDsSchemas
350
EAF
1001
ACAD
1070
     2
  0
DICTIONARY
  5
BBA
102
{ACAD_REACTORS
330
BB9
102
}
330
BB9
100
AcDbDictionary
281
     1
  0
XRECORD
  5
E9A
102
{ACAD_REACTORS
330
E99
102
}
330
E99
100
AcDbXrecord
280
     1
290
     1
  0
XRECORD
  5
97
102
{ACAD_REACTORS
330
96
102
}
330
96
100
AcDbXrecord
280
     1
290
     1
  0
XRECORD
  5
9C
102
{ACAD_REACTORS
330
9B
102
}
330
9B
100
AcDbXrecord
280
     1
290
     1
  0
XRECORD
  5
B1
102
{ACAD_REACTORS
330
B0
102
}
330
B0
100
AcDbXrecord
280
     1
290
     1
  0
XRECORD
  5
D5
102
{ACAD_REACTORS
330
D4
102
}
330
D4
100
AcDbXrecord
280
     1
290
     1
  0
XRECORD
  5
20C
102
{ACAD_REACTORS
330
20B
102
}
330
20B
100
AcDbXrecord
280
     1
290
     1
  0
XRECORD
  5
411
102
{ACAD_REACTORS
330
410
102
}
330
410
100
AcDbXrecord
280
     1
290
     1
  0
SORTENTSTABLE
  5
A3C
102
{ACAD_REACTORS
330
1C7
102
}
330
1C7
100
AcDbSortentsTable
330
70
331
D9
  5
DB
331
DA
  5
DC
331
DB
  5
DE
331
DC
  5
E0
331
DD
  5
E1
331
DE
  5
E2
331
DF
  5
E3
331
E0
  5
E4
331
E1
  5
E5
331
E2
  5
E6
331
E3
  5
E7
331
E4
  5
E8
331
E5
  5
E9
331
E6
  5
EA
331
E7
  5
EB
331
E8
  5
EC
331
E9
  5
ED
331
EA
  5
EE
331
EB
  5
EF
331
EC
  5
F0
331
ED
  5
F1
331
EE
  5
F2
331
EF
  5
F3
331
F0
  5
F4
331
F1
  5
F5
331
F2
  5
F6
331
F3
  5
F7
331
F4
  5
F8
331
F5
  5
F9
331
F6
  5
FA
331
F7
  5
FB
331
F8
  5
FC
331
F9
  5
FD
331
FA
  5
FE
331
FB
  5
FF
331
FC
  5
100
331
FD
  5
101
331
FE
  5
102
331
FF
  5
103
331
100
  5
104
331
101
  5
105
331
102
  5
106
331
103
  5
107
331
104
  5
108
331
105
  5
109
331
106
  5
10A
331
107
  5
10B
331
108
  5
10C
331
109
  5
10D
331
10A
  5
10E
331
10B
  5
10F
331
10C
  5
110
331
10D
  5
111
331
10E
  5
112
331
10F
  5
113
331
110
  5
114
331
111
  5
115
331
112
  5
116
331
113
  5
117
331
114
  5
118
331
115
  5
119
331
116
  5
11A
331
117
  5
11B
331
118
  5
11C
331
119
  5
11E
331
11A
  5
11F
331
11B
  5
120
331
11C
  5
121
331
11D
  5
122
331
11E
  5
123
331
11F
  5
124
331
120
  5
126
331
121
  5
127
331
122
  5
128
331
123
  5
129
331
124
  5
12A
331
125
  5
12B
331
126
  5
12C
331
127
  5
12D
331
128
  5
12E
331
129
  5
12F
331
12A
  5
130
331
12B
  5
131
331
12C
  5
132
331
12D
  5
133
331
12E
  5
134
331
12F
  5
135
331
130
  5
136
331
131
  5
137
331
132
  5
138
331
133
  5
13A
331
134
  5
13C
331
135
  5
140
331
136
  5
141
331
137
  5
142
331
138
  5
143
331
139
  5
144
331
13A
  5
145
331
13B
  5
146
331
13C
  5
147
331
13D
  5
148
331
13E
  5
149
331
13F
  5
14A
331
140
  5
14B
331
141
  5
14C
331
142
  5
14D
331
143
  5
14E
331
144
  5
14F
331
147
  5
152
331
148
  5
153
331
149
  5
154
331
14A
  5
155
331
14B
  5
156
331
14C
  5
DA
331
14D
  5
D9
331
14E
  5
13F
331
150
  5
157
331
151
  5
158
331
152
  5
159
331
153
  5
15A
331
154
  5
15B
331
155
  5
15C
331
156
  5
15D
331
157
  5
15E
331
158
  5
15F
331
159
  5
160
331
15A
  5
161
331
15B
  5
162
331
15C
  5
163
331
15D
  5
164
331
15E
  5
165
331
15F
  5
166
331
160
  5
167
331
161
  5
168
331
162
  5
169
331
163
  5
16A
331
164
  5
16B
331
165
  5
16C
331
166
  5
16D
331
167
  5
16E
331
168
  5
16F
331
169
  5
170
331
16A
  5
171
331
16B
  5
172
331
16C
  5
173
331
16D
  5
174
331
16E
  5
175
331
16F
  5
176
331
170
  5
177
331
171
  5
178
331
172
  5
179
331
173
  5
17A
331
174
  5
17B
331
175
  5
17C
331
176
  5
17D
331
177
  5
17E
331
178
  5
17F
331
179
  5
180
331
17A
  5
181
331
17B
  5
182
331
17C
  5
183
331
17D
  5
184
331
17E
  5
185
331
17F
  5
186
331
180
  5
13D
331
181
  5
139
331
182
  5
13E
331
183
  5
187
331
184
  5
188
331
185
  5
189
331
186
  5
18A
331
187
  5
18B
331
188
  5
18C
331
189
  5
18D
331
18A
  5
18E
331
18B
  5
18F
331
18C
  5
190
331
18D
  5
191
331
18E
  5
192
331
18F
  5
193
331
190
  5
194
331
191
  5
195
331
192
  5
196
331
193
  5
197
331
194
  5
198
331
195
  5
199
331
196
  5
19A
331
197
  5
19B
331
198
  5
19C
331
199
  5
19D
331
19A
  5
19E
331
19B
  5
19F
331
19C
  5
1A0
331
19D
  5
1A1
331
19E
  5
1A2
331
19F
  5
1A3
331
1A0
  5
1A4
331
1A1
  5
1A5
331
1A2
  5
1A6
331
1A3
  5
1A7
331
1A4
  5
1A8
331
1A5
  5
1A9
331
1A6
  5
1AA
331
1A7
  5
1AB
331
1A8
  5
1AC
331
1A9
  5
1AD
331
1AA
  5
1AE
331
1AB
  5
1AF
331
1AC
  5
1B0
331
1AD
  5
1B1
331
1AE
  5
1B2
331
1AF
  5
1B3
331
1B0
  5
1B4
331
1B1
  5
1B5
331
1B2
  5
1B6
331
1B3
  5
1B7
331
1B4
  5
1B8
331
1B5
  5
1B9
331
1B6
  5
1BA
331
1B7
  5
1BB
331
1B8
  5
1BC
331
1B9
  5
1BD
331
1BA
  5
1BE
331
1BB
  5
1BF
331
1BC
  5
1C1
331
1BD
  5
1C2
331
1BE
  5
1C3
331
1BF
  5
1C4
331
1C1
  5
DF
331
1C2
  5
DD
331
1C3
  5
11D
331
1C4
  5
125
331
1D1
  5
408
331
209
  5
40D
331
24C
  5
414
331
258
  5
415
331
264
  5
416
331
328
  5
43D
331
329
  5
43E
331
32C
  5
441
331
333
  5
442
331
347
  5
1D2
331
372
  5
1FC
331
3CA
  5
24C
331
3D9
  5
258
331
408
  5
29F
331
409
  5
2AE
331
40A
  5
2BF
331
40B
  5
2CE
331
40C
  5
2DD
331
40D
  5
2EC
331
40E
  5
2FB
331
412
  5
30C
331
413
  5
30D
331
414
  5
30E
331
415
  5
30F
331
416
  5
310
331
417
  5
311
331
418
  5
312
331
419
  5
313
331
41A
  5
314
331
41B
  5
315
331
41C
  5
316
331
41D
  5
317
331
41E
  5
318
331
41F
  5
319
331
420
  5
31A
331
421
  5
31B
331
422
  5
31C
331
423
  5
31D
331
424
  5
31E
331
425
  5
31F
331
426
  5
320
331
427
  5
321
331
428
  5
322
331
429
  5
323
331
42A
  5
324
331
42B
  5
325
331
42C
  5
326
331
42D
  5
327
331
42E
  5
328
331
42F
  5
329
331
430
  5
32A
331
431
  5
32B
331
432
  5
32C
331
433
  5
333
331
434
  5
334
331
435
  5
347
331
436
  5
356
331
437
  5
363
331
438
  5
372
331
439
  5
37F
331
43A
  5
38E
331
43B
  5
3A2
331
43C
  5
3B6
331
43D
  5
3CA
331
43E
  5
3D9
331
440
  5
3F7
331
441
  5
406
331
442
  5
407
  0
SORTENTSTABLE
  5
A3B
102
{ACAD_REACTORS
330
7F
102
}
330
7F
100
AcDbSortentsTable
330
7E
  0
XRECORD
  5
EFC
102
{ACAD_REACTORS
330
EFB
102
}
330
EFB
100
AcDbXrecord
280
     1
 40
2402.0
  1
\U+220546
  0
XRECORD
  5
EFE
102
{ACAD_REACTORS
330
EFD
102
}
330
EFD
100
AcDbXrecord
280
     1
 40
2366.0
  1
\U+220542
  0
XRECORD
  5
E9E
102
{ACAD_REACTORS
330
E9D
102
}
330
E9D
100
AcDbXrecord
280
     1
 40
496354.0
  1
\pxi0.25;充填ガス
  0
XRECORD
  5
EA0
102
{ACAD_REACTORS
330
E9F
102
}
330
E9F
100
AcDbXrecord
280
     1
 40
1262712.0
  1
\pxi0.25;最高充填圧力
  0
XRECORD
  5
EF6
102
{ACAD_REACTORS
330
EF5
102
}
330
EF5
100
AcDbXrecord
280
     1
 40
1487.0
  1
\U+2113
  0
XRECORD
  5
BCE
102
{ACAD_REACTORS
330
BCD
102
}
330
BCD
100
AcDbXrecord
280
     1
 90
        1
340
43
  0
XRECORD
  5
EA4
102
{ACAD_REACTORS
330
EA2
102
}
330
EA2
100
AcDbXrecord
280
     1
 70
     1
  0
XRECORD
  5
EA3
102
{ACAD_REACTORS
330
EA2
102
}
330
EA2
100
AcDbXrecord
280
     1
 40
1.25
  0
XRECORD
  5
EA5
102
{ACAD_REACTORS
330
EA2
102
}
330
EA2
100
AcDbXrecord
280
     1
 40
1.570796326794896
  0
XRECORD
  5
EA7
102
{ACAD_REACTORS
330
EA2
102
}
330
EA2
100
AcDbXrecord
280
     1
340
5B
  0
XRECORD
  5
EA8
102
{ACAD_REACTORS
330
EA2
102
}
330
EA2
100
AcDbXrecord
280
     1
340
5B
  0
XRECORD
  5
EA6
102
{ACAD_REACTORS
330
EA2
102
}
330
EA2
100
AcDbXrecord
280
     1
340
5B
  0
ACDBDETAILVIEWSTYLE
  5
6B
102
{ACAD_XDICTIONARY
360
EEA
102
}
102
{ACAD_REACTORS
330
6A
102
}
330
6A
100
AcDbModelDocViewStyle
 70
     0
  3
Imperial24
290
     0
100
AcDbDetailViewStyle
 70
     0
 71
     0
 90
        3
 71
     1
340
55
 62
   256
 40
0.24
340
0
 62
   256
 40
0.24
300

 40
0.36
280
     3
 71
     2
340
5D
 90
       25
 62
   256
 71
     3
340
55
 62
   256
 40
0.24
 90
        1
 40
0.75
 90
        1
300
%<\AcVar ViewType \f "%tc1">% %<\AcVar ViewDetailId>%\PSCALE %<\AcVar ViewScale \f "%sn">%
 71
     4
340
5D
 90
       25
 62
   256
340
5D
 90
       25
 62
   256
280
     0
  0
ACDBDETAILVIEWSTYLE
  5
BAF
102
{ACAD_XDICTIONARY
360
EF9
102
}
102
{ACAD_REACTORS
330
6A
102
}
330
6A
100
AcDbModelDocViewStyle
 70
     0
  3
Metric50
290
     0
100
AcDbDetailViewStyle
 70
     0
 71
     0
 90
        3
 71
     1
340
55
 62
   256
 40
5.0
340
0
 62
   256
 40
5.0
300

 40
0.0
280
     1
 71
     2
340
5D
 90
       25
 62
   256
 71
     3
340
55
 62
   256
 40
5.0
 90
        0
 40
15.0
 90
        1
300
%<\AcVar ViewDetailId>% (%<\AcVar ViewScale \f "%sn">%)
 71
     4
340
5D
 90
       25
 62
   256
340
5D
 90
       25
 62
   256
280
     0
  0
LAYOUT
  5
73
102
{ACAD_REACTORS
330
62
102
}
330
62
100
AcDbPlotSettings
  1

  2
FF W001 for DocuWide 3037
  4
psk:ISOA4
  6

 40
0.0
 41
0.0
 42
0.0
 43
0.0
 44
210.0
 45
297.0
 46
0.0
 47
0.0
 48
0.0
 49
0.0
140
0.0
141
0.0
142
1.0
143
1.701696072630072
 70
 11952
 72
     1
 73
     1
 74
     0
  7
印刷_1.stb
 75
     0
147
0.5876490027120063
 76
     0
 77
     2
 78
   300
148
3.560740178671039
149
-3.998960321199575
100
AcDbLayout
  1
Model
 70
     1
 71
     0
 10
0.0
 20
0.0
 11
12.0
 21
9.0
 12
0.0
 22
0.0
 32
0.0
 14
0.0
 24
0.0
 34
0.0
 15
0.0
 25
0.0
 35
0.0
146
0.0
 13
0.0
 23
0.0
 33
0.0
 16
1.0
 26
0.0
 36
0.0
 17
0.0
 27
1.0
 37
0.0
 76
     0
330
70
331
57
1001
ACAD_PSEXT
1000
FF W001 for DocuWide 3037
1000
FF W001 for DocuWide 3037
1000
192.168.5.100:plt00t
1000

1070
     0
  0
LAYOUT
  5
6F
102
{ACAD_REACTORS
330
62
102
}
330
62
100
AcDbPlotSettings
  1

  2
FF W001 for DocuWide 3037
  4
psk:ISOA4
  6

 40
0.0
 41
0.0
 42
0.0
 43
0.0
 44
210.0
 45
297.0
 46
0.0
 47
0.0
 48
0.0
 49
0.0
140
0.0
141
0.0
142
1.0
143
1.0
 70
   688
 72
     1
 73
     1
 74
     5
  7

 75
    16
147
1.0
 76
     0
 77
     2
 78
   300
148
0.0
149
0.0
100
AcDbLayout
  1
レイアウト1
 70
     1
 71
     1
 10
0.0
 20
0.0
 11
297.0
 21
210.0
 12
0.0
 22
0.0
 32
0.0
 14
1.000000000000000E+20
 24
1.000000000000000E+20
 34
1.000000000000000E+20
 15
-1.000000000000000E+20
 25
-1.000000000000000E+20
 35
-1.000000000000000E+20
146
0.0
 13
0.0
 23
0.0
 33
0.0
 16
1.0
 26
0.0
 36
0.0
 17
0.0
 27
1.0
 37
0.0
 76
     0
330
6C
331
BCC
1001
ACAD_PSEXT
1000
FF W001 for DocuWide 3037
1000
FF W001 for DocuWide 3037
1000
192.168.5.100:plt00t
1000

1070
     0
  0
MATERIAL
  5
19
102
{ACAD_XDICTIONARY
360
1A
102
}
102
{ACAD_REACTORS
330
10
102
}
330
10
100
AcDbMaterial
  1
ByBlock
 72
     0
 43
0.0208333333333333
 43
0.0
 43
0.0
 43
0.0
 43
0.0
 43
0.0208333333333333
 43
0.0
 43
0.0
 43
0.0
 43
0.0
 43
1.0
 43
0.0
 43
0.0
 43
0.0
 43
0.0
 43
1.0
 77
     0
 47
0.0208333333333333
 47
0.0
 47
0.0
 47
0.0
 47
0.0
 47
0.0208333333333333
 47
0.0
 47
0.0
 47
0.0
 47
0.0
 47
1.0
 47
0.0
 47
0.0
 47
0.0
 47
0.0
 47
1.0
171
     0
 49
0.0208333333333333
 49
0.0
 49
0.0
 49
0.0
 49
0.0
 49
0.0208333333333333
 49
0.0
 49
0.0
 49
0.0
 49
0.0
 49
1.0
 49
0.0
 49
0.0
 49
0.0
 49
0.0
 49
1.0
175
     0
142
0.0208333333333333
142
0.0
142
0.0
142
0.0
142
0.0
142
0.0208333333333333
142
0.0
142
0.0
142
0.0
142
0.0
142
1.0
142
0.0
142
0.0
142
0.0
142
0.0
142
1.0
179
     0
144
0.0208333333333333
144
0.0
144
0.0
144
0.0
144
0.0
144
0.0208333333333333
144
0.0
144
0.0
144
0.0
144
0.0
144
1.0
144
0.0
144
0.0
144
0.0
144
0.0
144
1.0
147
0.0208333333333333
147
0.0
147
0.0
147
0.0
147
0.0
147
0.0208333333333333
147
0.0
147
0.0
147
0.0
147
0.0
147
1.0
147
0.0
147
0.0
147
0.0
147
0.0
147
1.0
  0
MATERIAL
  5
11
102
{ACAD_XDICTIONARY
360
12
102
}
102
{ACAD_REACTORS
330
10
102
}
330
10
100
AcDbMaterial
  1
ByLayer
 72
     0
 43
0.0208333333333333
 43
0.0
 43
0.0
 43
0.0
 43
0.0
 43
0.0208333333333333
 43
0.0
 43
0.0
 43
0.0
 43
0.0
 43
1.0
 43
0.0
 43
0.0
 43
0.0
 43
0.0
 43
1.0
 77
     0
 47
0.0208333333333333
 47
0.0
 47
0.0
 47
0.0
 47
0.0
 47
0.0208333333333333
 47
0.0
 47
0.0
 47
0.0
 47
0.0
 47
1.0
 47
0.0
 47
0.0
 47
0.0
 47
0.0
 47
1.0
171
     0
 49
0.0208333333333333
 49
0.0
 49
0.0
 49
0.0
 49
0.0
 49
0.0208333333333333
 49
0.0
 49
0.0
 49
0.0
 49
0.0
 49
1.0
 49
0.0
 49
0.0
 49
0.0
 49
0.0
 49
1.0
175
     0
142
0.0208333333333333
142
0.0
142
0.0
142
0.0
142
0.0
142
0.0208333333333333
142
0.0
142
0.0
142
0.0
142
0.0
142
1.0
142
0.0
142
0.0
142
0.0
142
0.0
142
1.0
179
     0
144
0.0208333333333333
144
0.0
144
0.0
144
0.0
144
0.0
144
0.0208333333333333
144
0.0
144
0.0
144
0.0
144
0.0
144
1.0
144
0.0
144
0.0
144
0.0
144
0.0
144
1.0
147
0.0208333333333333
147
0.0
147
0.0
147
0.0
147
0.0
147
0.0208333333333333
147
0.0
147
0.0
147
0.0
147
0.0
147
1.0
147
0.0
147
0.0
147
0.0
147
0.0
147
1.0
  0
MATERIAL
  5
21
102
{ACAD_XDICTIONARY
360
22
102
}
102
{ACAD_REACTORS
330
10
102
}
330
10
100
AcDbMaterial
  1
Global
 72
     0
 43
0.0208333333333333
 43
0.0
 43
0.0
 43
0.0
 43
0.0
 43
0.0208333333333333
 43
0.0
 43
0.0
 43
0.0
 43
0.0
 43
1.0
 43
0.0
 43
0.0
 43
0.0
 43
0.0
 43
1.0
 77
     0
 47
0.0208333333333333
 47
0.0
 47
0.0
 47
0.0
 47
0.0
 47
0.0208333333333333
 47
0.0
 47
0.0
 47
0.0
 47
0.0
 47
1.0
 47
0.0
 47
0.0
 47
0.0
 47
0.0
 47
1.0
171
     0
 49
0.0208333333333333
 49
0.0
 49
0.0
 49
0.0
 49
0.0
 49
0.0208333333333333
 49
0.0
 49
0.0
 49
0.0
 49
0.0
 49
1.0
 49
0.0
 49
0.0
 49
0.0
 49
0.0
 49
1.0
175
     0
142
0.0208333333333333
142
0.0
142
0.0
142
0.0
142
0.0
142
0.0208333333333333
142
0.0
142
0.0
142
0.0
142
0.0
142
1.0
142
0.0
142
0.0
142
0.0
142
0.0
142
1.0
179
     0
144
0.0208333333333333
144
0.0
144
0.0
144
0.0
144
0.0
144
0.0208333333333333
144
0.0
144
0.0
144
0.0
144
0.0
144
1.0
144
0.0
144
0.0
144
0.0
144
0.0
144
1.0
147
0.0208333333333333
147
0.0
147
0.0
147
0.0
147
0.0
147
0.0208333333333333
147
0.0
147
0.0
147
0.0
147
0.0
147
1.0
147
0.0
147
0.0
147
0.0
147
0.0
147
1.0
  0
MLEADERSTYLE
  5
67
102
{ACAD_XDICTIONARY
360
EE6
102
}
102
{ACAD_REACTORS
330
66
102
}
330
66
100
AcDbMLeaderStyle
170
     2
171
     1
172
     0
 90
        2
 40
0.0
 41
0.0
173
     1
 91
-1056964608
340
5B
 92
       -2
290
     1
 42
0.09
291
     1
 43
0.36
  3
Standard
 44
0.18
300

342
55
174
     1
178
     6
175
     1
176
     0
 93
-1056964608
 45
0.18
292
     0
297
     0
 46
0.18
 94
-1056964608
 47
1.0
 49
1.0
140
1.0
293
     1
141
0.0
294
     1
177
     0
142
1.0
295
     0
296
     0
143
0.125
1001
ACAD_MLEADERVER
1070
     2
  0
MLINESTYLE
  5
60
102
{ACAD_REACTORS
330
5F
102
}
330
5F
100
AcDbMlineStyle
  2
STANDARD
 70
     0
  3

 62
   256
 51
90.0
 52
90.0
 71
     2
 49
0.5
 62
   256
  6
BYLAYER
 49
-0.5
 62
   256
  6
BYLAYER
  0
ACDBPLACEHOLDER
  5
F
102
{ACAD_REACTORS
330
E
102
}
330
E
  0
ACDBPLACEHOLDER
  5
82
102
{ACAD_REACTORS
330
E
102
}
330
E
  0
SCALE
  5
43
102
{ACAD_REACTORS
330
42
102
}
330
42
100
AcDbScale
 70
     0
300
1:1
140
1.0
141
1.0
290
     1
  0
SCALE
  5
44
102
{ACAD_REACTORS
330
42
102
}
330
42
100
AcDbScale
 70
     0
300
1:2
140
1.0
141
2.0
290
     0
  0
SCALE
  5
45
102
{ACAD_REACTORS
330
42
102
}
330
42
100
AcDbScale
 70
     0
300
1:4
140
1.0
141
4.0
290
     0
  0
SCALE
  5
46
102
{ACAD_REACTORS
330
42
102
}
330
42
100
AcDbScale
 70
     0
300
1:5
140
1.0
141
5.0
290
     0
  0
SCALE
  5
47
102
{ACAD_REACTORS
330
42
102
}
330
42
100
AcDbScale
 70
     0
300
1:8
140
1.0
141
8.0
290
     0
  0
SCALE
  5
48
102
{ACAD_REACTORS
330
42
102
}
330
42
100
AcDbScale
 70
     0
300
1:10
140
1.0
141
10.0
290
     0
  0
SCALE
  5
49
102
{ACAD_REACTORS
330
42
102
}
330
42
100
AcDbScale
 70
     0
300
1:16
140
1.0
141
16.0
290
     0
  0
SCALE
  5
4A
102
{ACAD_REACTORS
330
42
102
}
330
42
100
AcDbScale
 70
     0
300
1:20
140
1.0
141
20.0
290
     0
  0
SCALE
  5
4B
102
{ACAD_REACTORS
330
42
102
}
330
42
100
AcDbScale
 70
     0
300
1:30
140
1.0
141
30.0
290
     0
  0
SCALE
  5
4C
102
{ACAD_REACTORS
330
42
102
}
330
42
100
AcDbScale
 70
     0
300
1:40
140
1.0
141
40.0
290
     0
  0
SCALE
  5
4D
102
{ACAD_REACTORS
330
42
102
}
330
42
100
AcDbScale
 70
     0
300
1:50
140
1.0
141
50.0
290
     0
  0
SCALE
  5
4E
102
{ACAD_REACTORS
330
42
102
}
330
42
100
AcDbScale
 70
     0
300
1:100
140
1.0
141
100.0
290
     0
  0
SCALE
  5
4F
102
{ACAD_REACTORS
330
42
102
}
330
42
100
AcDbScale
 70
     0
300
2:1
140
2.0
141
1.0
290
     0
  0
SCALE
  5
50
102
{ACAD_REACTORS
330
42
102
}
330
42
100
AcDbScale
 70
     0
300
4:1
140
4.0
141
1.0
290
     0
  0
SCALE
  5
51
102
{ACAD_REACTORS
330
42
102
}
330
42
100
AcDbScale
 70
     0
300
8:1
140
8.0
141
1.0
290
     0
  0
SCALE
  5
52
102
{ACAD_REACTORS
330
42
102
}
330
42
100
AcDbScale
 70
     0
300
10:1
140
10.0
141
1.0
290
     0
  0
SCALE
  5
53
102
{ACAD_REACTORS
330
42
102
}
330
42
100
AcDbScale
 70
     0
300
100:1
140
100.0
141
1.0
290
     0
  0
ACDBSECTIONVIEWSTYLE
  5
69
102
{ACAD_XDICTIONARY
360
EE8
102
}
102
{ACAD_REACTORS
330
68
102
}
330
68
100
AcDbModelDocViewStyle
 70
     0
  3
Imperial24
290
     0
100
AcDbSectionViewStyle
 70
     0
 71
     0
 90
       78
 71
     1
340
55
 62
   256
 40
0.24
340
0
340
0
 62
   256
 40
0.24
300
I, O, Q, S, X, Z
 40
0.48
 90
        3
 40
0.18
 90
        1
 71
     2
340
5D
 90
       25
 62
   256
340
5D
 90
       50
 62
   256
 40
0.24
 40
0.0
 40
0.24
 71
     3
340
55
 62
   256
 40
0.24
 90
        1
 40
0.75
 90
        1
300
%<\AcVar ViewType \f "%tc1">% %<\AcVar ViewSectionStartId>%-%<\AcVar ViewSectionEndId>%\PSCALE %<\AcVar ViewScale \f "%sn">%
 71
     4
 62
   256
 62
   257
300
ANSI31
 40
1.0
 90
        0
290
     0
290
     0
 90
        6
 40
0.0
 40
1.570796326794896
 40
0.2617993877991494
 40
1.308996938995747
 40
-0.2617993877991494
 40
1.832595714594046
  0
ACDBSECTIONVIEWSTYLE
  5
BAE
102
{ACAD_XDICTIONARY
360
EF7
102
}
102
{ACAD_REACTORS
330
68
102
}
330
68
100
AcDbModelDocViewStyle
 70
     0
  3
Metric50
290
     0
100
AcDbSectionViewStyle
 70
     0
 71
     0
 90
      102
 71
     1
340
55
 62
   256
 40
5.0
340
0
340
0
 62
   256
 40
5.0
300
I, O, Q, S, X, Z
 40
10.0
 90
        0
 40
2.5
 90
        0
 71
     2
340
5D
 90
       25
 62
   256
340
5D
 90
       50
 62
   256
 40
5.0
 40
2.5
 40
5.0
 71
     3
340
55
 62
   256
 40
5.0
 90
        0
 40
15.0
 90
        1
300
%<\AcVar ViewSectionStartId>%-%<\AcVar ViewSectionEndId>% (%<\AcVar ViewScale \f "%sn">%)
 71
     4
 62
   256
 62
   257
300
ANSI31
 40
1.0
 90
        0
290
     0
290
     0
 90
        6
 40
0.0
 40
1.570796326794896
 40
0.2617993877991494
 40
1.308996938995747
 40
-0.2617993877991494
 40
1.832595714594046
  0
TABLESTYLE
  5
65
102
{ACAD_XDICTIONARY
360
E9B
102
}
102
{ACAD_REACTORS
330
64
102
}
330
64
100
AcDbTableStyle
  3
Standard
 70
     0
 71
     3
 40
1.5
 41
1.5
280
     0
281
     0
  7
Standard
140
4.5
170
     2
 62
     0
 63
     7
283
     0
274
    -2
284
     1
 64
     0
275
    -2
285
     1
 65
     0
276
    -2
286
     1
 66
     0
277
    -2
287
     1
 67
     0
278
    -2
288
     1
 68
     0
279
    -2
289
     1
 69
     0
  7
Standard
140
6.0
170
     5
 62
     0
 63
     7
283
     0
274
    -2
284
     1
 64
     0
275
    -2
285
     1
 65
     0
276
    -2
286
     1
 66
     0
277
    -2
287
     1
 67
     0
278
    -2
288
     1
 68
     0
279
    -2
289
     1
 69
     0
  7
Standard
140
4.5
170
     5
 62
     0
 63
     7
283
     0
274
    -2
284
     1
 64
     0
275
    -2
285
     1
 65
     0
276
    -2
286
     1
 66
     0
277
    -2
287
     1
 67
     0
278
    -2
288
     1
 68
     0
279
    -2
289
     1
 69
     0
  0
VISUALSTYLE
  5
2F
102
{ACAD_XDICTIONARY
360
EBE
102
}
102
{ACAD_REACTORS
330
29
102
}
330
29
100
AcDbVisualStyle
  2
2dWireframe
 70
     4
 71
     0
 72
     2
 73
     0
 90
        0
 40
-0.6
 41
-30.0
 62
     5
 63
     7
421
 16777215
 74
     1
 91
        4
 64
     7
 65
   257
 75
     1
175
     1
 42
1.0
 92
        0
 66
   257
 43
1.0
 76
     1
 77
     6
 78
     2
 67
     7
 79
     5
170
     0
171
     0
290
     0
174
     0
 93
        1
 44
0.0
173
     0
291
     0
 45
0.0
1001
ACAD
1000
AcDbSavedByObjectVersion
1070
     0
  0
VISUALSTYLE
  5
2E
102
{ACAD_XDICTIONARY
360
EBC
102
}
102
{ACAD_REACTORS
330
29
102
}
330
29
100
AcDbVisualStyle
  2
Basic
 70
     7
 71
     1
 72
     0
 73
     1
 90
        0
 40
-0.6
 41
-30.0
 62
     5
 63
     7
421
 16777215
 74
     0
 91
        4
 64
     7
 65
   257
 75
     1
175
     1
 42
1.0
 92
        8
 66
     7
 43
1.0
 76
     1
 77
     6
 78
     2
 67
     7
 79
     5
170
     0
171
     0
290
     0
174
     0
 93
        1
 44
0.0
173
     0
291
     1
 45
0.0
1001
ACAD
1000
AcDbSavedByObjectVersion
1070
     0
  0
VISUALSTYLE
  5
35
102
{ACAD_XDICTIONARY
360
ECA
102
}
102
{ACAD_REACTORS
330
29
102
}
330
29
100
AcDbVisualStyle
  2
Brighten
 70
    12
 71
     2
 72
     2
 73
     0
 90
        0
 40
-0.6
 41
-30.0
 62
     5
 63
     7
421
 16777215
 74
     1
 91
        4
 64
     7
 65
   257
 75
     1
175
     1
 42
1.0
 92
        8
 66
     7
 43
1.0
 76
     1
 77
     6
 78
     2
 67
     7
 79
     5
170
     0
171
     0
290
     0
174
     0
 93
        1
 44
50.0
173
     0
291
     1
 45
0.0
1001
ACAD
1000
AcDbSavedByObjectVersion
1070
     0
  0
VISUALSTYLE
  5
39
102
{ACAD_XDICTIONARY
360
ED2
102
}
102
{ACAD_REACTORS
330
29
102
}
330
29
100
AcDbVisualStyle
  2
ColorChange
 70
    16
 71
     2
 72
     2
 73
     3
 90
        0
 40
-0.6
 41
-30.0
 62
     5
 63
     8
421
  8421504
 74
     1
 91
        4
 64
     7
 65
   257
 75
     1
175
     1
 42
1.0
 92
        8
 66
     8
424
  8421504
 43
1.0
 76
     1
 77
     6
 78
     2
 67
     7
 79
     5
170
     0
171
     0
290
     0
174
     0
 93
        1
 44
0.0
173
     0
291
     1
 45
0.0
1001
ACAD
1000
AcDbSavedByObjectVersion
1070
     0
  0
VISUALSTYLE
  5
32
102
{ACAD_XDICTIONARY
360
EC4
102
}
102
{ACAD_REACTORS
330
29
102
}
330
29
100
AcDbVisualStyle
  2
Conceptual
 70
     9
 71
     3
 72
     2
 73
     0
 90
        0
 40
-0.6
 41
-30.0
 62
     5
 63
     7
421
 16777215
 74
     2
 91
        2
 64
     7
 65
   257
 75
     1
175
     1
 42
179.0
 92
        8
 66
     7
 43
1.0
 76
     1
 77
     6
 78
     2
 67
     7
 79
     3
170
     0
171
     0
290
     0
174
     0
 93
        1
 44
0.0
173
     0
291
     0
 45
0.0
1001
ACAD
1000
AcDbSavedByObjectVersion
1070
     0
  0
VISUALSTYLE
  5
34
102
{ACAD_XDICTIONARY
360
EC8
102
}
102
{ACAD_REACTORS
330
29
102
}
330
29
100
AcDbVisualStyle
  2
Dim
 70
    11
 71
     2
 72
     2
 73
     0
 90
        0
 40
-0.6
 41
-30.0
 62
     5
 63
     7
421
 16777215
 74
     1
 91
        4
 64
     7
 65
   257
 75
     1
175
     1
 42
1.0
 92
        8
 66
     7
 43
1.0
 76
     1
 77
     6
 78
     2
 67
     7
 79
     5
170
     0
171
     0
290
     0
174
     0
 93
        1
 44
-50.0
173
     0
291
     1
 45
0.0
1001
ACAD
1000
AcDbSavedByObjectVersion
1070
     0
  0
VISUALSTYLE
  5
41
102
{ACAD_XDICTIONARY
360
EE2
102
}
102
{ACAD_REACTORS
330
29
102
}
330
29
100
AcDbVisualStyle
  2
EdgeColorOff
 70
    22
 71
     2
 72
     2
 73
     0
 90
        0
 40
-0.6
 41
-30.0
 62
     5
 63
     7
421
 16777215
 74
     1
 91
        4
 64
     7
 65
   257
 75
     1
175
     1
 42
1.0
 92
        8
 66
     7
 43
1.0
 76
     1
 77
     6
 78
     2
 67
     7
 79
     5
170
     0
171
     0
290
     0
174
     0
 93
        1
 44
0.0
173
     0
291
     1
 45
0.0
1001
ACAD
1000
AcDbSavedByObjectVersion
1070
     0
  0
VISUALSTYLE
  5
38
102
{ACAD_XDICTIONARY
360
ED0
102
}
102
{ACAD_REACTORS
330
29
102
}
330
29
100
AcDbVisualStyle
  2
Facepattern
 70
    15
 71
     2
 72
     2
 73
     0
 90
        0
 40
-0.6
 41
-30.0
 62
     5
 63
     7
421
 16777215
 74
     1
 91
        4
 64
     7
 65
   257
 75
     1
175
     1
 42
1.0
 92
        8
 66
     7
 43
1.0
 76
     1
 77
     6
 78
     2
 67
     7
 79
     5
170
     0
171
     0
290
     0
174
     0
 93
        1
 44
0.0
173
     0
291
     1
 45
0.0
1001
ACAD
1000
AcDbSavedByObjectVersion
1070
     0
  0
VISUALSTYLE
  5
2A
102
{ACAD_XDICTIONARY
360
EB4
102
}
102
{ACAD_REACTORS
330
29
102
}
330
29
100
AcDbVisualStyle
  2
Flat
 70
     0
 71
     2
 72
     1
 73
     1
 90
        2
 40
-0.6
 41
30.0
 62
     5
 63
     7
421
 16777215
 74
     0
 91
        0
 64
     7
 65
   257
 75
     1
175
     1
 42
1.0
 92
        8
 66
     7
 43
1.0
 76
     1
 77
     6
 78
     2
 67
     7
 79
     5
170
     0
171
     0
290
     0
174
     0
 93
       13
 44
0.0
173
     0
291
     1
 45
0.0
1001
ACAD
1000
AcDbSavedByObjectVersion
1070
     0
  0
VISUALSTYLE
  5
2B
102
{ACAD_XDICTIONARY
360
EB6
102
}
102
{ACAD_REACTORS
330
29
102
}
330
29
100
AcDbVisualStyle
  2
FlatWithEdges
 70
     1
 71
     2
 72
     1
 73
     1
 90
        2
 40
-0.6
 41
30.0
 62
     5
 63
     7
421
 16777215
 74
     1
 91
        0
 64
     7
 65
   257
 75
     1
175
     1
 42
1.0
 92
        0
 66
   257
 43
1.0
 76
     1
 77
     6
 78
     2
 67
     7
 79
     5
170
     0
171
     0
290
     0
174
     0
 93
       13
 44
0.0
173
     0
291
     1
 45
0.0
1001
ACAD
1000
AcDbSavedByObjectVersion
1070
     0
  0
VISUALSTYLE
  5
2C
102
{ACAD_XDICTIONARY
360
EB8
102
}
102
{ACAD_REACTORS
330
29
102
}
330
29
100
AcDbVisualStyle
  2
Gouraud
 70
     2
 71
     2
 72
     2
 73
     1
 90
        2
 40
-0.6
 41
30.0
 62
     5
 63
     7
421
 16777215
 74
     0
 91
        0
 64
     7
 65
   257
 75
     1
175
     1
 42
1.0
 92
        0
 66
     7
 43
1.0
 76
     1
 77
     6
 78
     2
 67
     7
 79
     5
170
     0
171
     0
290
     0
174
     0
 93
       13
 44
0.0
173
     0
291
     1
 45
0.0
1001
ACAD
1000
AcDbSavedByObjectVersion
1070
     0
  0
VISUALSTYLE
  5
2D
102
{ACAD_XDICTIONARY
360
EBA
102
}
102
{ACAD_REACTORS
330
29
102
}
330
29
100
AcDbVisualStyle
  2
GouraudWithEdges
 70
     3
 71
     2
 72
     2
 73
     1
 90
        2
 40
-0.6
 41
30.0
 62
     5
 63
     7
421
 16777215
 74
     1
 91
        0
 64
     7
 65
   257
 75
     1
175
     1
 42
1.0
 92
        0
 66
   257
 43
1.0
 76
     1
 77
     6
 78
     2
 67
     7
 79
     5
170
     0
171
     0
290
     0
174
     0
 93
       13
 44
0.0
173
     0
291
     1
 45
0.0
1001
ACAD
1000
AcDbSavedByObjectVersion
1070
     0
  0
VISUALSTYLE
  5
31
102
{ACAD_XDICTIONARY
360
EC2
102
}
102
{ACAD_REACTORS
330
29
102
}
330
29
100
AcDbVisualStyle
  2
Hidden
 70
     6
 71
     1
 72
     2
 73
     2
 90
        0
 40
-0.6
 41
-30.0
 62
     5
 63
     7
421
 16777215
 74
     2
 91
        2
 64
     7
 65
   257
 75
     2
175
     1
 42
40.0
 92
        0
 66
   257
 43
1.0
 76
     1
 77
     6
 78
     2
 67
     7
 79
     3
170
     0
171
     0
290
     0
174
     0
 93
        1
 44
0.0
173
     0
291
     0
 45
0.0
1001
ACAD
1000
AcDbSavedByObjectVersion
1070
     0
  0
VISUALSTYLE
  5
3F
102
{ACAD_XDICTIONARY
360
EDE
102
}
102
{ACAD_REACTORS
330
29
102
}
330
29
100
AcDbVisualStyle
  2
JitterOff
 70
    20
 71
     2
 72
     2
 73
     0
 90
        0
 40
-0.6
 41
-30.0
 62
     5
 63
     7
421
 16777215
 74
     1
 91
        4
 64
     7
 65
   257
 75
     1
175
     1
 42
1.0
 92
       10
 66
     7
 43
1.0
 76
     1
 77
     6
 78
     2
 67
     7
 79
     5
170
     0
171
     0
290
     0
174
     0
 93
        1
 44
0.0
173
     0
291
     1
 45
0.0
1001
ACAD
1000
AcDbSavedByObjectVersion
1070
     0
  0
VISUALSTYLE
  5
37
102
{ACAD_XDICTIONARY
360
ECE
102
}
102
{ACAD_REACTORS
330
29
102
}
330
29
100
AcDbVisualStyle
  2
Linepattern
 70
    14
 71
     2
 72
     2
 73
     0
 90
        0
 40
-0.6
 41
-30.0
 62
     5
 63
     7
421
 16777215
 74
     1
 91
        4
 64
     7
 65
   257
 75
     7
175
     7
 42
1.0
 92
        8
 66
     7
 43
1.0
 76
     1
 77
     6
 78
     2
 67
     7
 79
     5
170
     0
171
     0
290
     0
174
     0
 93
        1
 44
0.0
173
     0
291
     1
 45
0.0
1001
ACAD
1000
AcDbSavedByObjectVersion
1070
     0
  0
VISUALSTYLE
  5
40
102
{ACAD_XDICTIONARY
360
EE0
102
}
102
{ACAD_REACTORS
330
29
102
}
330
29
100
AcDbVisualStyle
  2
OverhangOff
 70
    21
 71
     2
 72
     2
 73
     0
 90
        0
 40
-0.6
 41
-30.0
 62
     5
 63
     7
421
 16777215
 74
     1
 91
        4
 64
     7
 65
   257
 75
     1
175
     1
 42
1.0
 92
        9
 66
     7
 43
1.0
 76
     1
 77
     6
 78
     2
 67
     7
 79
     5
170
     0
171
     0
290
     0
174
     0
 93
        1
 44
0.0
173
     0
291
     1
 45
0.0
1001
ACAD
1000
AcDbSavedByObjectVersion
1070
     0
  0
VISUALSTYLE
  5
33
102
{ACAD_XDICTIONARY
360
EC6
102
}
102
{ACAD_REACTORS
330
29
102
}
330
29
100
AcDbVisualStyle
  2
Realistic
 70
     8
 71
     2
 72
     3
 73
     0
 90
        2
 40
-0.6
 41
30.0
 62
     5
 63
     7
421
 16777215
 74
     0
 91
        0
 64
     7
 65
   257
 75
     1
175
     1
 42
1.0
 92
        8
 66
   257
 43
1.0
 76
     1
 77
     6
 78
     2
 67
     7
 79
     3
170
     0
171
     0
290
     0
174
     0
 93
       13
 44
0.0
173
     0
291
     0
 45
0.0
1001
ACAD
1000
AcDbSavedByObjectVersion
1070
     0
  0
VISUALSTYLE
  5
3E
102
{ACAD_XDICTIONARY
360
EDC
102
}
102
{ACAD_REACTORS
330
29
102
}
330
29
100
AcDbVisualStyle
  2
Shaded
 70
    27
 71
     2
 72
     2
 73
     1
 90
        2
 40
-0.6
 41
30.0
 62
     5
 63
     7
421
 16777215
 74
     0
 91
        4
 64
     7
 65
   257
 75
     1
175
     1
 42
1.0
 92
        8
 66
   257
 43
1.0
 76
     1
 77
     6
 78
     2
 67
     8
425
  7895160
 79
     3
170
     0
171
     0
290
     0
174
     0
 93
        5
 44
0.0
173
     0
291
     0
 45
0.0
1001
ACAD
1000
AcDbSavedByObjectVersion
1070
     0
  0
VISUALSTYLE
  5
3D
102
{ACAD_XDICTIONARY
360
EDA
102
}
102
{ACAD_REACTORS
330
29
102
}
330
29
100
AcDbVisualStyle
  2
Shaded with edges
 70
    26
 71
     2
 72
     2
 73
     1
 90
        2
 40
-0.6
 41
30.0
 62
     5
 63
     7
421
 16777215
 74
     1
 91
        2
 64
     7
 65
   257
 75
     2
175
     1
 42
1.0
 92
        8
 66
   257
 43
1.0
 76
     1
 77
     6
 78
     2
 67
     7
 79
     3
170
     0
171
     0
290
     0
174
     0
 93
        5
 44
0.0
173
     0
291
     0
 45
0.0
1001
ACAD
1000
AcDbSavedByObjectVersion
1070
     0
  0
VISUALSTYLE
  5
3A
102
{ACAD_XDICTIONARY
360
ED4
102
}
102
{ACAD_REACTORS
330
29
102
}
330
29
100
AcDbVisualStyle
  2
Shades of Gray
 70
    23
 71
     2
 72
     2
 73
     3
 90
        0
 40
-0.6
 41
-30.0
 62
     5
 63
     7
421
 16777215
 74
     2
 91
        2
 64
     7
 65
     7
 75
     1
175
     1
 42
40.0
 92
        8
 66
     7
 43
1.0
 76
     1
 77
     6
 78
     2
 67
     7
 79
     3
170
     0
171
     0
290
     0
174
     0
 93
        1
 44
0.0
173
     0
291
     0
 45
0.0
1001
ACAD
1000
AcDbSavedByObjectVersion
1070
     0
  0
VISUALSTYLE
  5
3B
102
{ACAD_XDICTIONARY
360
ED6
102
}
102
{ACAD_REACTORS
330
29
102
}
330
29
100
AcDbVisualStyle
  2
Sketchy
 70
    24
 71
     1
 72
     2
 73
     2
 90
        0
 40
-0.6
 41
-30.0
 62
     5
 63
     7
421
 16777215
 74
     2
 91
        2
 64
     7
 65
     7
 75
     1
175
     1
 42
40.0
 92
       11
 66
     7
 43
1.0
 76
     1
 77
     6
 78
     2
 67
     7
 79
     6
170
     0
171
     0
290
     0
174
     0
 93
        1
 44
0.0
173
     0
291
     0
 45
0.0
1001
ACAD
1000
AcDbSavedByObjectVersion
1070
     0
  0
VISUALSTYLE
  5
36
102
{ACAD_XDICTIONARY
360
ECC
102
}
102
{ACAD_REACTORS
330
29
102
}
330
29
100
AcDbVisualStyle
  2
Thicken
 70
    13
 71
     2
 72
     2
 73
     0
 90
        0
 40
-0.6
 41
-30.0
 62
     5
 63
     7
421
 16777215
 74
     1
 91
        4
 64
     7
 65
   257
 75
     1
175
     1
 42
1.0
 92
       12
 66
     7
 43
1.0
 76
     1
 77
     6
 78
     2
 67
     7
 79
     5
170
     0
171
     0
290
     0
174
     0
 93
        1
 44
0.0
173
     0
291
     1
 45
0.0
1001
ACAD
1000
AcDbSavedByObjectVersion
1070
     0
  0
VISUALSTYLE
  5
30
102
{ACAD_XDICTIONARY
360
EC0
102
}
102
{ACAD_REACTORS
330
29
102
}
330
29
100
AcDbVisualStyle
  2
Wireframe
 70
     5
 71
     0
 72
     2
 73
     0
 90
        0
 40
-0.6
 41
-30.0
 62
     5
 63
     7
421
 16777215
 74
     1
 91
        4
 64
     7
 65
   257
 75
     1
175
     1
 42
1.0
 92
        0
 66
   257
 43
1.0
 76
     1
 77
     6
 78
     2
 67
     7
 79
     3
170
     0
171
     0
290
     0
174
     0
 93
        1
 44
0.0
173
     0
291
     0
 45
0.0
1001
ACAD
1000
AcDbSavedByObjectVersion
1070
     0
  0
VISUALSTYLE
  5
3C
102
{ACAD_XDICTIONARY
360
ED8
102
}
102
{ACAD_REACTORS
330
29
102
}
330
29
100
AcDbVisualStyle
  2
X-Ray
 70
    25
 71
     2
 72
     2
 73
     1
 90
        1
 40
0.5
 41
-30.0
 62
     5
 63
     7
421
 16777215
 74
     1
 91
        0
 64
     7
 65
   257
 75
     1
175
     1
 42
1.0
 92
        8
 66
     7
 43
1.0
 76
     1
 77
     6
 78
     2
 67
     7
 79
     3
170
     0
171
     0
290
     0
174
     0
 93
       13
 44
0.0
173
     0
291
     0
 45
0.0
1001
ACAD
1000
AcDbSavedByObjectVersion
1070
     0
  0
DICTIONARYVAR
  5
BA8
102
{ACAD_REACTORS
330
BA2
102
}
330
BA2
100
DictionaryVariables
280
     0
  1
0
  0
DICTIONARYVAR
  5
BA9
102
{ACAD_REACTORS
330
BA2
102
}
330
BA2
100
DictionaryVariables
280
     0
  1
1:1
  0
DICTIONARYVAR
  5
BA4
102
{ACAD_REACTORS
330
BA2
102
}
330
BA2
100
DictionaryVariables
280
     0
  1
STANDARD
  0
DICTIONARYVAR
  5
BA3
102
{ACAD_REACTORS
330
BA2
102
}
330
BA2
100
DictionaryVariables
280
     0
  1
STANDARD
  0
DICTIONARYVAR
  5
BA5
102
{ACAD_REACTORS
330
BA2
102
}
330
BA2
100
DictionaryVariables
280
     0
  1
Imperial24
  0
DICTIONARYVAR
  5
BA6
102
{ACAD_REACTORS
330
BA2
102
}
330
BA2
100
DictionaryVariables
280
     0
  1
Imperial24
  0
DICTIONARYVAR
  5
BAB
102
{ACAD_REACTORS
330
BA2
102
}
330
BA2
100
DictionaryVariables
280
     0
  1
1
  0
DICTIONARYVAR
  5
BAC
102
{ACAD_REACTORS
330
BA2
102
}
330
BA2
100
DictionaryVariables
280
     0
  1
15
  0
DICTIONARYVAR
  5
BAA
102
{ACAD_REACTORS
330
BA2
102
}
330
BA2
100
DictionaryVariables
280
     0
  1
0
  0
DICTIONARYVAR
  5
BA7
102
{ACAD_REACTORS
330
BA2
102
}
330
BA2
100
DictionaryVariables
280
     0
  1
0
  0
DICTIONARY
  5
EB0
102
{ACAD_REACTORS
330
EAE
102
}
330
EAE
100
AcDbDictionary
281
     1
  0
DICTIONARY
  5
EAF
102
{ACAD_REACTORS
330
EAE
102
}
330
EAE
100
AcDbDictionary
281
     1
  3
3099655416464
350
EA9
  3
3099655416480
350
EAA
  3
3099655416496
350
EAB
  3
3099655416512
350
EAC
  3
3099655416528
350
EAD
  0
DICTIONARY
  5
EEA
330
6B
100
AcDbDictionary
280
     1
281
     1
  3
ACAD_XREC_ROUNDTRIP
360
EEB
  0
DICTIONARY
  5
EF9
330
BAF
100
AcDbDictionary
280
     1
281
     1
  3
ACAD_XREC_ROUNDTRIP
360
EFA
  0
DICTIONARY
  5
1A
330
19
100
AcDbDictionary
280
     1
281
     1
  3
ACAD_XREC_ROUNDTRIP
360
EB2
  3
BUMPTILE
360
1C
  3
DIFFUSETILE
360
1B
  3
OPACITYTILE
360
1F
  3
REFLECTIONTILE
360
1E
  3
REFRACTIONTILE
360
20
  3
SPECULARTILE
360
1D
  0
DICTIONARY
  5
12
330
11
100
AcDbDictionary
280
     1
281
     1
  3
ACAD_XREC_ROUNDTRIP
360
EB1
  3
BUMPTILE
360
14
  3
DIFFUSETILE
360
13
  3
OPACITYTILE
360
17
  3
REFLECTIONTILE
360
16
  3
REFRACTIONTILE
360
18
  3
SPECULARTILE
360
15
  0
DICTIONARY
  5
22
330
21
100
AcDbDictionary
280
     1
281
     1
  3
ACAD_XREC_ROUNDTRIP
360
EB3
  3
BUMPTILE
360
24
  3
DIFFUSETILE
360
23
  3
OPACITYTILE
360
27
  3
REFLECTIONTILE
360
26
  3
REFRACTIONTILE
360
28
  3
SPECULARTILE
360
25
  0
DICTIONARY
  5
EE6
330
67
100
AcDbDictionary
280
     1
281
     1
  3
ACAD_XREC_ROUNDTRIP
360
EE7
  0
DICTIONARY
  5
EE8
330
69
100
AcDbDictionary
280
     1
281
     1
  3
ACAD_XREC_ROUNDTRIP
360
EE9
  0
DICTIONARY
  5
EF7
330
BAE
100
AcDbDictionary
280
     1
281
     1
  3
ACAD_XREC_ROUNDTRIP
360
EF8
  0
DICTIONARY
  5
E9B
330
65
100
AcDbDictionary
280
     1
281
     1
  3
ACAD_ROUNDTRIP_2008_TABLESTYLE_CELLSTYLEMAP
360
E9C
  3
ACAD_XREC_ROUNDTRIP
360
EE4
  0
DICTIONARY
  5
EBE
330
2F
100
AcDbDictionary
280
     1
281
     1
  3
ACAD_XREC_ROUNDTRIP
360
EBF
  0
DICTIONARY
  5
EBC
330
2E
100
AcDbDictionary
280
     1
281
     1
  3
ACAD_XREC_ROUNDTRIP
360
EBD
  0
DICTIONARY
  5
ECA
330
35
100
AcDbDictionary
280
     1
281
     1
  3
ACAD_XREC_ROUNDTRIP
360
ECB
  0
DICTIONARY
  5
ED2
330
39
100
AcDbDictionary
280
     1
281
     1
  3
ACAD_XREC_ROUNDTRIP
360
ED3
  0
DICTIONARY
  5
EC4
330
32
100
AcDbDictionary
280
     1
281
     1
  3
ACAD_XREC_ROUNDTRIP
360
EC5
  0
DICTIONARY
  5
EC8
330
34
100
AcDbDictionary
280
     1
281
     1
  3
ACAD_XREC_ROUNDTRIP
360
EC9
  0
DICTIONARY
  5
EE2
330
41
100
AcDbDictionary
280
     1
281
     1
  3
ACAD_XREC_ROUNDTRIP
360
EE3
  0
DICTIONARY
  5
ED0
330
38
100
AcDbDictionary
280
     1
281
     1
  3
ACAD_XREC_ROUNDTRIP
360
ED1
  0
DICTIONARY
  5
EB4
330
2A
100
AcDbDictionary
280
     1
281
     1
  3
ACAD_XREC_ROUNDTRIP
360
EB5
  0
DICTIONARY
  5
EB6
330
2B
100
AcDbDictionary
280
     1
281
     1
  3
ACAD_XREC_ROUNDTRIP
360
EB7
  0
DICTIONARY
  5
EB8
330
2C
100
AcDbDictionary
280
     1
281
     1
  3
ACAD_XREC_ROUNDTRIP
360
EB9
  0
DICTIONARY
  5
EBA
330
2D
100
AcDbDictionary
280
     1
281
     1
  3
ACAD_XREC_ROUNDTRIP
360
EBB
  0
DICTIONARY
  5
EC2
330
31
100
AcDbDictionary
280
     1
281
     1
  3
ACAD_XREC_ROUNDTRIP
360
EC3
  0
DICTIONARY
  5
EDE
330
3F
100
AcDbDictionary
280
     1
281
     1
  3
ACAD_XREC_ROUNDTRIP
360
EDF
  0
DICTIONARY
  5
ECE
330
37
100
AcDbDictionary
280
     1
281
     1
  3
ACAD_XREC_ROUNDTRIP
360
ECF
  0
DICTIONARY
  5
EE0
330
40
100
AcDbDictionary
280
     1
281
     1
  3
ACAD_XREC_ROUNDTRIP
360
EE1
  0
DICTIONARY
  5
EC6
330
33
100
AcDbDictionary
280
     1
281
     1
  3
ACAD_XREC_ROUNDTRIP
360
EC7
  0
DICTIONARY
  5
EDC
330
3E
100
AcDbDictionary
280
     1
281
     1
  3
ACAD_XREC_ROUNDTRIP
360
EDD
  0
DICTIONARY
  5
EDA
330
3D
100
AcDbDictionary
280
     1
281
     1
  3
ACAD_XREC_ROUNDTRIP
360
EDB
  0
DICTIONARY
  5
ED4
330
3A
100
AcDbDictionary
280
     1
281
     1
  3
ACAD_XREC_ROUNDTRIP
360
ED5
  0
DICTIONARY
  5
ED6
330
3B
100
AcDbDictionary
280
     1
281
     1
  3
ACAD_XREC_ROUNDTRIP
360
ED7
  0
DICTIONARY
  5
ECC
330
36
100
AcDbDictionary
280
     1
281
     1
  3
ACAD_XREC_ROUNDTRIP
360
ECD
  0
DICTIONARY
  5
EC0
330
30
100
AcDbDictionary
280
     1
281
     1
  3
ACAD_XREC_ROUNDTRIP
360
EC1
  0
DICTIONARY
  5
ED8
330
3C
100
AcDbDictionary
280
     1
281
     1
  3
ACAD_XREC_ROUNDTRIP
360
ED9
  0
XRECORD
  5
EA9
102
{ACAD_REACTORS
330
EAF
102
}
330
EAF
100
AcDbXrecord
280
     1
  1
AcDb_Thumbnail_Schema
102
{ATTRRECORD
341
EAA
  2
AcDbDs::TreatedAsObjectData
280
     1
291
     1
102
ATTRRECORD}
102
{ATTRRECORD
341
EAB
  2
AcDbDs::Legacy
280
     1
291
     1
102
ATTRRECORD}
  2
AcDbDs::ID
280
    10
 91
        8
102
{ATTRRECORD
341
EAC
  2
AcDs:Indexable
280
     1
291
     1
102
ATTRRECORD}
102
{ATTRRECORD
341
EAD
  2
AcDbDs::HandleAttribute
280
     7
282
     1
102
ATTRRECORD}
  2
Thumbnail_Data
280
    15
 91
        0
  0
XRECORD
  5
EAA
102
{ACAD_REACTORS
330
EAF
102
}
330
EAF
100
AcDbXrecord
280
     1
  1
AcDbDs::TreatedAsObjectDataSchema
  2
AcDbDs::TreatedAsObjectData
280
     1
 91
        0
  0
XRECORD
  5
EAB
102
{ACAD_REACTORS
330
EAF
102
}
330
EAF
100
AcDbXrecord
280
     1
  1
AcDbDs::LegacySchema
  2
AcDbDs::Legacy
280
     1
 91
        0
  0
XRECORD
  5
EAC
102
{ACAD_REACTORS
330
EAF
102
}
330
EAF
100
AcDbXrecord
280
     1
  1
AcDbDs::IndexedPropertySchema
  2
AcDs:Indexable
280
     1
 91
        0
  0
XRECORD
  5
EAD
102
{ACAD_REACTORS
330
EAF
102
}
330
EAF
100
AcDbXrecord
280
     1
  1
AcDbDs::HandleAttributeSchema
  2
AcDbDs::HandleAttribute
280
     7
 91
        1
284
     1
  0
XRECORD
  5
EEB
102
{ACAD_REACTORS
330
EEA
102
}
330
EEA
100
AcDbXrecord
280
     1
102
DISPLAYNAME
  1
Imperial24
102
FLAGS
 90
        0
  0
XRECORD
  5
EFA
102
{ACAD_REACTORS
330
EF9
102
}
330
EF9
100
AcDbXrecord
280
     1
102
DISPLAYNAME
  1
Metric50
102
FLAGS
 90
        0
  0
XRECORD
  5
EB2
102
{ACAD_REACTORS
330
1A
102
}
330
1A
100
AcDbXrecord
280
     1
102
MATERIAL
148
0.0
149
0.0
149
0.0
 93
        0
 94
      127
282
     0
 72
     0
 77
     0
171
     0
175
     0
179
     0
273
     0
  0
XRECORD
  5
1C
102
{ACAD_REACTORS
330
1A
102
}
330
1A
100
AcDbXrecord
280
     1
270
     1
271
     1
  0
XRECORD
  5
1B
102
{ACAD_REACTORS
330
1A
102
}
330
1A
100
AcDbXrecord
280
     1
270
     1
271
     1
  0
XRECORD
  5
1F
102
{ACAD_REACTORS
330
1A
102
}
330
1A
100
AcDbXrecord
280
     1
270
     1
271
     1
  0
XRECORD
  5
1E
102
{ACAD_REACTORS
330
1A
102
}
330
1A
100
AcDbXrecord
280
     1
270
     1
271
     1
  0
XRECORD
  5
20
102
{ACAD_REACTORS
330
1A
102
}
330
1A
100
AcDbXrecord
280
     1
270
     1
271
     1
  0
XRECORD
  5
1D
102
{ACAD_REACTORS
330
1A
102
}
330
1A
100
AcDbXrecord
280
     1
270
     1
271
     1
  0
XRECORD
  5
EB1
102
{ACAD_REACTORS
330
12
102
}
330
12
100
AcDbXrecord
280
     1
102
MATERIAL
148
0.0
149
0.0
149
0.0
 93
        0
 94
      127
282
     0
 72
     0
 77
     0
171
     0
175
     0
179
     0
273
     0
  0
XRECORD
  5
14
102
{ACAD_REACTORS
330
12
102
}
330
12
100
AcDbXrecord
280
     1
270
     1
271
     1
  0
XRECORD
  5
13
102
{ACAD_REACTORS
330
12
102
}
330
12
100
AcDbXrecord
280
     1
270
     1
271
     1
  0
XRECORD
  5
17
102
{ACAD_REACTORS
330
12
102
}
330
12
100
AcDbXrecord
280
     1
270
     1
271
     1
  0
XRECORD
  5
16
102
{ACAD_REACTORS
330
12
102
}
330
12
100
AcDbXrecord
280
     1
270
     1
271
     1
  0
XRECORD
  5
18
102
{ACAD_REACTORS
330
12
102
}
330
12
100
AcDbXrecord
280
     1
270
     1
271
     1
  0
XRECORD
  5
15
102
{ACAD_REACTORS
330
12
102
}
330
12
100
AcDbXrecord
280
     1
270
     1
271
     1
  0
XRECORD
  5
EB3
102
{ACAD_REACTORS
330
22
102
}
330
22
100
AcDbXrecord
280
     1
102
MATERIAL
148
0.0
149
0.0
149
0.0
 93
        0
 94
      127
282
     0
 72
     0
 77
     0
171
     0
175
     0
179
     0
273
     0
  0
XRECORD
  5
24
102
{ACAD_REACTORS
330
22
102
}
330
22
100
AcDbXrecord
280
     1
270
     1
271
     1
  0
XRECORD
  5
23
102
{ACAD_REACTORS
330
22
102
}
330
22
100
AcDbXrecord
280
     1
270
     1
271
     1
  0
XRECORD
  5
27
102
{ACAD_REACTORS
330
22
102
}
330
22
100
AcDbXrecord
280
     1
270
     1
271
     1
  0
XRECORD
  5
26
102
{ACAD_REACTORS
330
22
102
}
330
22
100
AcDbXrecord
280
     1
270
     1
271
     1
  0
XRECORD
  5
28
102
{ACAD_REACTORS
330
22
102
}
330
22
100
AcDbXrecord
280
     1
270
     1
271
     1
  0
XRECORD
  5
25
102
{ACAD_REACTORS
330
22
102
}
330
22
100
AcDbXrecord
280
     1
270
     1
271
     1
  0
XRECORD
  5
EE7
102
{ACAD_REACTORS
330
EE6
102
}
330
EE6
100
AcDbXrecord
280
     1
102
ACAD_ROUNDTRIP_2012_MLEADER_STYLE
298
     1
  0
XRECORD
  5
EE9
102
{ACAD_REACTORS
330
EE8
102
}
330
EE8
100
AcDbXrecord
280
     1
102
DISPLAYNAME
  1
Imperial24
102
FLAGS
 90
        0
  0
XRECORD
  5
EF8
102
{ACAD_REACTORS
330
EF7
102
}
330
EF7
100
AcDbXrecord
280
     1
102
DISPLAYNAME
  1
Metric50
102
FLAGS
 90
        0
  0
CELLSTYLEMAP
  5
E9C
102
{ACAD_REACTORS
330
E9B
102
}
330
E9B
100
AcDbCellStyleMap
 90
        3
300
CELLSTYLE
  1
TABLEFORMAT_BEGIN
 90
        5
170
     1
 91
        0
 92
    32768
 62
   257
 93
        1
300
CONTENTFORMAT
  1
CONTENTFORMAT_BEGIN
 90
        0
 91
        0
 92
        4
 93
        0
300

 40
0.0
140
1.0
 94
        5
 62
     0
340
55
144
6.0
309
CONTENTFORMAT_END
171
     1
301
MARGIN
  1
CELLMARGIN_BEGIN
 40
1.5
 40
1.5
 40
1.5
 40
1.5
 40
0.18
 40
0.18
309
CELLMARGIN_END
 94
        6
 95
        1
302
GRIDFORMAT
  1
GRIDFORMAT_BEGIN
 90
        0
 91
        1
 62
     0
 92
       -2
340
0
 93
        0
 40
0.045
309
GRIDFORMAT_END
 95
        2
302
GRIDFORMAT
  1
GRIDFORMAT_BEGIN
 90
        0
 91
        1
 62
     0
 92
       -2
340
0
 93
        0
 40
0.045
309
GRIDFORMAT_END
 95
        4
302
GRIDFORMAT
  1
GRIDFORMAT_BEGIN
 90
        0
 91
        1
 62
     0
 92
       -2
340
0
 93
        0
 40
0.045
309
GRIDFORMAT_END
 95
        8
302
GRIDFORMAT
  1
GRIDFORMAT_BEGIN
 90
        0
 91
        1
 62
     0
 92
       -2
340
0
 93
        0
 40
0.045
309
GRIDFORMAT_END
 95
       16
302
GRIDFORMAT
  1
GRIDFORMAT_BEGIN
 90
        0
 91
        1
 62
     0
 92
       -2
340
0
 93
        0
 40
0.045
309
GRIDFORMAT_END
 95
       32
302
GRIDFORMAT
  1
GRIDFORMAT_BEGIN
 90
        0
 91
        1
 62
     0
 92
       -2
340
0
 93
        0
 40
0.045
309
GRIDFORMAT_END
309
TABLEFORMAT_END
  1
CELLSTYLE_BEGIN
 90
        1
 91
        1
300
_TITLE
309
CELLSTYLE_END
300
CELLSTYLE
  1
TABLEFORMAT_BEGIN
 90
        5
170
     1
 91
        0
 92
        0
 62
   257
 93
        1
300
CONTENTFORMAT
  1
CONTENTFORMAT_BEGIN
 90
        0
 91
        0
 92
        4
 93
        0
300

 40
0.0
140
1.0
 94
        5
 62
     0
340
55
144
4.5
309
CONTENTFORMAT_END
171
     1
301
MARGIN
  1
CELLMARGIN_BEGIN
 40
1.5
 40
1.5
 40
1.5
 40
1.5
 40
0.18
 40
0.18
309
CELLMARGIN_END
 94
        6
 95
        1
302
GRIDFORMAT
  1
GRIDFORMAT_BEGIN
 90
        0
 91
        1
 62
     0
 92
       -2
340
0
 93
        0
 40
0.045
309
GRIDFORMAT_END
 95
        2
302
GRIDFORMAT
  1
GRIDFORMAT_BEGIN
 90
        0
 91
        1
 62
     0
 92
       -2
340
0
 93
        0
 40
0.045
309
GRIDFORMAT_END
 95
        4
302
GRIDFORMAT
  1
GRIDFORMAT_BEGIN
 90
        0
 91
        1
 62
     0
 92
       -2
340
0
 93
        0
 40
0.045
309
GRIDFORMAT_END
 95
        8
302
GRIDFORMAT
  1
GRIDFORMAT_BEGIN
 90
        0
 91
        1
 62
     0
 92
       -2
340
0
 93
        0
 40
0.045
309
GRIDFORMAT_END
 95
       16
302
GRIDFORMAT
  1
GRIDFORMAT_BEGIN
 90
        0
 91
        1
 62
     0
 92
       -2
340
0
 93
        0
 40
0.045
309
GRIDFORMAT_END
 95
       32
302
GRIDFORMAT
  1
GRIDFORMAT_BEGIN
 90
        0
 91
        1
 62
     0
 92
       -2
340
0
 93
        0
 40
0.045
309
GRIDFORMAT_END
309
TABLEFORMAT_END
  1
CELLSTYLE_BEGIN
 90
        2
 91
        1
300
_HEADER
309
CELLSTYLE_END
300
CELLSTYLE
  1
TABLEFORMAT_BEGIN
 90
        5
170
     1
 91
        0
 92
        0
 62
   257
 93
        1
300
CONTENTFORMAT
  1
CONTENTFORMAT_BEGIN
 90
        0
 91
        0
 92
        4
 93
        0
300

 40
0.0
140
1.0
 94
        2
 62
     0
340
55
144
4.5
309
CONTENTFORMAT_END
171
     1
301
MARGIN
  1
CELLMARGIN_BEGIN
 40
1.5
 40
1.5
 40
1.5
 40
1.5
 40
0.18
 40
0.18
309
CELLMARGIN_END
 94
        6
 95
        1
302
GRIDFORMAT
  1
GRIDFORMAT_BEGIN
 90
        0
 91
        1
 62
     0
 92
       -2
340
0
 93
        0
 40
0.045
309
GRIDFORMAT_END
 95
        2
302
GRIDFORMAT
  1
GRIDFORMAT_BEGIN
 90
        0
 91
        1
 62
     0
 92
       -2
340
0
 93
        0
 40
0.045
309
GRIDFORMAT_END
 95
        4
302
GRIDFORMAT
  1
GRIDFORMAT_BEGIN
 90
        0
 91
        1
 62
     0
 92
       -2
340
0
 93
        0
 40
0.045
309
GRIDFORMAT_END
 95
        8
302
GRIDFORMAT
  1
GRIDFORMAT_BEGIN
 90
        0
 91
        1
 62
     0
 92
       -2
340
0
 93
        0
 40
0.045
309
GRIDFORMAT_END
 95
       16
302
GRIDFORMAT
  1
GRIDFORMAT_BEGIN
 90
        0
 91
        1
 62
     0
 92
       -2
340
0
 93
        0
 40
0.045
309
GRIDFORMAT_END
 95
       32
302
GRIDFORMAT
  1
GRIDFORMAT_BEGIN
 90
        0
 91
        1
 62
     0
 92
       -2
340
0
 93
        0
 40
0.045
309
GRIDFORMAT_END
309
TABLEFORMAT_END
  1
CELLSTYLE_BEGIN
 90
        3
 91
        2
300
_DATA
309
CELLSTYLE_END
  0
XRECORD
  5
EE4
102
{ACAD_REACTORS
330
E9B
102
}
330
E9B
100
AcDbXrecord
280
     1
102
ACAD_ROUNDTRIP_PRE2007_TABLESTYLE
 90
        4
 91
        0
  1

 92
        4
 93
        0
  2

 94
        4
 95
        0
  3

  0
XRECORD
  5
EBF
102
{ACAD_REACTORS
330
EBE
102
}
330
EBE
100
AcDbXrecord
280
     1
102
RTVSPost2010Prop28
280
     1
102
RTVSPost2010PropOp28
 70
     1
102
RTVSPost2010Prop29
280
     1
102
RTVSPost2010PropOp29
 70
     1
102
RTVSPost2010Prop30
280
     0
102
RTVSPost2010PropOp30
 70
     1
102
RTVSPost2010Prop31
280
     0
102
RTVSPost2010PropOp31
 70
     1
102
RTVSPost2010Prop32
280
     0
102
RTVSPost2010PropOp32
 70
     1
102
RTVSPost2010Prop33
280
     0
102
RTVSPost2010PropOp33
 70
     1
102
RTVSPost2010Prop34
280
     0
102
RTVSPost2010PropOp34
 70
     1
102
RTVSPost2010Prop35
280
     0
102
RTVSPost2010PropOp35
 70
     1
102
RTVSPost2010Prop36
280
     0
102
RTVSPost2010PropOp36
 70
     1
102
RTVSPost2010Prop37
 90
       50
102
RTVSPost2010PropOp37
 70
     1
102
RTVSPost2010Prop38
140
0.0
102
RTVSPost2010PropOp38
 70
     1
102
RTVSPost2010Prop39
140
1.0
102
RTVSPost2010PropOp39
 70
     1
102
RTVSPost2010Prop40
 90
        0
102
RTVSPost2010PropOp40
 70
     1
102
RTVSPost2010Prop41ColorIndex
 90
       18
102
RTVSPost2010Prop41ColorRGB
 90
        0
102
RTVSPost2010PropOp41
 70
     1
102
RTVSPost2010Prop42
 90
       50
102
RTVSPost2010PropOp42
 70
     1
102
RTVSPost2010Prop43
 90
        3
102
RTVSPost2010PropOp43
 70
     1
102
RTVSPost2010Prop44ColorIndex
 90
        5
102
RTVSPost2010Prop44ColorRGB
 90
      255
102
RTVSPost2010PropOp44
 70
     1
102
RTVSPost2010Prop45
280
     0
102
RTVSPost2010PropOp45
 70
     1
102
RTVSPost2010Prop46
 90
       50
102
RTVSPost2010PropOp46
 70
     1
102
RTVSPost2010Prop47
 90
       50
102
RTVSPost2010PropOp47
 70
     1
102
RTVSPost2010Prop48
 90
       50
102
RTVSPost2010PropOp48
 70
     1
102
RTVSPost2010Prop49
280
     0
102
RTVSPost2010PropOp49
 70
     1
102
RTVSPost2010Prop50
 90
       50
102
RTVSPost2010PropOp50
 70
     1
102
RTVSPost2010Prop51ColorIndex
 90
      256
102
RTVSPost2010Prop51ColorRGB
 90
-16777216
102
RTVSPost2010PropOp51
 70
     0
102
RTVSPost2010Prop52
140
1.0
102
RTVSPost2010PropOp52
 70
     0
102
RTVSPost2010Prop53
 90
        2
102
RTVSPost2010PropOp53
 70
     1
102
RTVSPost2010Prop54
  1
strokes_ogs.tif
102
RTVSPost2010PropOp54
 70
     1
102
RTVSPost2010Prop55
280
     0
102
RTVSPost2010PropOp55
 70
     1
102
RTVSPost2010Prop56
140
1.0
102
RTVSPost2010PropOp56
 70
     1
102
RTVSPost2010Prop57
140
1.0
102
RTVSPost2010PropOp57
 70
     1
102
RTVSPropertyOp0
 70
     1
102
RTVSPropertyOp1
 70
     1
102
RTVSPropertyOp2
 70
     1
102
RTVSPropertyOp3
 70
     1
102
RTVSPropertyOp4
 70
     1
102
RTVSPropertyOp5
 70
     1
102
RTVSPropertyOp6
 70
     1
102
RTVSPropertyOp7
 70
     1
102
RTVSPropertyOp8
 70
     1
102
RTVSPropertyOp9
 70
     1
102
RTVSPropertyOp10
 70
     1
102
RTVSPropertyOp11
 70
     1
102
RTVSPropertyOp12
 70
     1
102
RTVSPropertyOp13
 70
     1
102
RTVSPropertyOp14
 70
     1
102
RTVSPropertyOp15
 70
     1
102
RTVSPropertyOp16
 70
     1
102
RTVSPropertyOp17
 70
     1
102
RTVSPropertyOp18
 70
     1
102
RTVSPropertyOp19
 70
     1
102
RTVSPropertyOp20
 70
     1
102
RTVSPropertyOp21
 70
     1
102
RTVSPropertyOp22
 70
     1
102
RTVSPropertyOp23
 70
     1
102
RTVSPropertyOp24
 70
     1
102
RTVSPropertyOp25
 70
     1
102
RTVSPropertyOp26
 70
     1
102
RTVSPropertyOp27
 70
     1
102
RTVSPropertyOp28
 70
     1
102
RTVSPropertyOp29
 70
     1
102
RTVSPropertyOp30
 70
     1
102
RTVSPropertyOp31
 70
     1
102
RTVSPropertyOp32
 70
     1
102
RTVSPropertyOp33
 70
     1
102
RTVSPropertyOp34
 70
     1
102
RTVSPropertyOp35
 70
     1
102
RTVSPropertyOp36
 70
     1
102
RTVSPropertyOp37
 70
     1
102
RTVSPropertyOp38
 70
     1
102
RTVSPropertyOp39
 70
     1
102
RTVSPropertyOp40
 70
     1
102
RTVSPropertyOp41
 70
     1
102
RTVSPropertyOp42
 70
     1
102
RTVSPropertyOp43
 70
     1
102
RTVSPropertyOp44
 70
     1
102
RTVSPropertyOp45
 70
     1
102
RTVSPropertyOp46
 70
     1
102
RTVSPropertyOp47
 70
     1
102
RTVSPropertyOp48
 70
     1
102
RTVSPropertyOp49
 70
     1
102
RTVSPropertyOp50
 70
     1
102
RTVSPropertyOp51
 70
     0
102
RTVSPropertyOp52
 70
     0
102
RTVSPropertyOp53
 70
     1
102
RTVSPropertyOp54
 70
     1
102
RTVSPropertyOp55
 70
     1
102
RTVSPropertyOp56
 70
     1
102
RTVSPropertyOp57
 70
     1
102
RTVSPropertyOp58
 70
     1
102
RTVSPropertyOp59
 70
     1
102
RTVSPropertyOp60
 70
     1
102
RTVSPropertyOp61
 70
     1
102
RTVSPropertyOp62
 70
     1
  0
XRECORD
  5
EBD
102
{ACAD_REACTORS
330
EBC
102
}
330
EBC
100
AcDbXrecord
280
     1
102
RTVSPost2010Prop28
280
     0
102
RTVSPost2010PropOp28
 70
     1
102
RTVSPost2010Prop29
280
     1
102
RTVSPost2010PropOp29
 70
     1
102
RTVSPost2010Prop30
280
     1
102
RTVSPost2010PropOp30
 70
     1
102
RTVSPost2010Prop31
280
     0
102
RTVSPost2010PropOp31
 70
     1
102
RTVSPost2010Prop32
280
     0
102
RTVSPost2010PropOp32
 70
     1
102
RTVSPost2010Prop33
280
     0
102
RTVSPost2010PropOp33
 70
     1
102
RTVSPost2010Prop34
280
     0
102
RTVSPost2010PropOp34
 70
     1
102
RTVSPost2010Prop35
280
     0
102
RTVSPost2010PropOp35
 70
     1
102
RTVSPost2010Prop36
280
     0
102
RTVSPost2010PropOp36
 70
     1
102
RTVSPost2010Prop37
 90
       50
102
RTVSPost2010PropOp37
 70
     1
102
RTVSPost2010Prop38
140
0.0
102
RTVSPost2010PropOp38
 70
     1
102
RTVSPost2010Prop39
140
1.0
102
RTVSPost2010PropOp39
 70
     1
102
RTVSPost2010Prop40
 90
        0
102
RTVSPost2010PropOp40
 70
     1
102
RTVSPost2010Prop41ColorIndex
 90
       18
102
RTVSPost2010Prop41ColorRGB
 90
        0
102
RTVSPost2010PropOp41
 70
     1
102
RTVSPost2010Prop42
 90
       50
102
RTVSPost2010PropOp42
 70
     1
102
RTVSPost2010Prop43
 90
        3
102
RTVSPost2010PropOp43
 70
     1
102
RTVSPost2010Prop44ColorIndex
 90
        5
102
RTVSPost2010Prop44ColorRGB
 90
      255
102
RTVSPost2010PropOp44
 70
     1
102
RTVSPost2010Prop45
280
     0
102
RTVSPost2010PropOp45
 70
     1
102
RTVSPost2010Prop46
 90
       50
102
RTVSPost2010PropOp46
 70
     1
102
RTVSPost2010Prop47
 90
       50
102
RTVSPost2010PropOp47
 70
     1
102
RTVSPost2010Prop48
 90
       50
102
RTVSPost2010PropOp48
 70
     1
102
RTVSPost2010Prop49
280
     0
102
RTVSPost2010PropOp49
 70
     1
102
RTVSPost2010Prop50
 90
       50
102
RTVSPost2010PropOp50
 70
     1
102
RTVSPost2010Prop51ColorIndex
 90
      256
102
RTVSPost2010Prop51ColorRGB
 90
-16777216
102
RTVSPost2010PropOp51
 70
     0
102
RTVSPost2010Prop52
140
1.0
102
RTVSPost2010PropOp52
 70
     0
102
RTVSPost2010Prop53
 90
        2
102
RTVSPost2010PropOp53
 70
     1
102
RTVSPost2010Prop54
  1
strokes_ogs.tif
102
RTVSPost2010PropOp54
 70
     1
102
RTVSPost2010Prop55
280
     0
102
RTVSPost2010PropOp55
 70
     1
102
RTVSPost2010Prop56
140
1.0
102
RTVSPost2010PropOp56
 70
     1
102
RTVSPost2010Prop57
140
1.0
102
RTVSPost2010PropOp57
 70
     1
102
RTVSPropertyOp0
 70
     1
102
RTVSPropertyOp1
 70
     1
102
RTVSPropertyOp2
 70
     1
102
RTVSPropertyOp3
 70
     1
102
RTVSPropertyOp4
 70
     1
102
RTVSPropertyOp5
 70
     1
102
RTVSPropertyOp6
 70
     1
102
RTVSPropertyOp7
 70
     1
102
RTVSPropertyOp8
 70
     1
102
RTVSPropertyOp9
 70
     1
102
RTVSPropertyOp10
 70
     1
102
RTVSPropertyOp11
 70
     1
102
RTVSPropertyOp12
 70
     1
102
RTVSPropertyOp13
 70
     1
102
RTVSPropertyOp14
 70
     1
102
RTVSPropertyOp15
 70
     1
102
RTVSPropertyOp16
 70
     1
102
RTVSPropertyOp17
 70
     1
102
RTVSPropertyOp18
 70
     1
102
RTVSPropertyOp19
 70
     1
102
RTVSPropertyOp20
 70
     1
102
RTVSPropertyOp21
 70
     1
102
RTVSPropertyOp22
 70
     1
102
RTVSPropertyOp23
 70
     1
102
RTVSPropertyOp24
 70
     1
102
RTVSPropertyOp25
 70
     1
102
RTVSPropertyOp26
 70
     1
102
RTVSPropertyOp27
 70
     1
102
RTVSPropertyOp28
 70
     1
102
RTVSPropertyOp29
 70
     1
102
RTVSPropertyOp30
 70
     1
102
RTVSPropertyOp31
 70
     1
102
RTVSPropertyOp32
 70
     1
102
RTVSPropertyOp33
 70
     1
102
RTVSPropertyOp34
 70
     1
102
RTVSPropertyOp35
 70
     1
102
RTVSPropertyOp36
 70
     1
102
RTVSPropertyOp37
 70
     1
102
RTVSPropertyOp38
 70
     1
102
RTVSPropertyOp39
 70
     1
102
RTVSPropertyOp40
 70
     1
102
RTVSPropertyOp41
 70
     1
102
RTVSPropertyOp42
 70
     1
102
RTVSPropertyOp43
 70
     1
102
RTVSPropertyOp44
 70
     1
102
RTVSPropertyOp45
 70
     1
102
RTVSPropertyOp46
 70
     1
102
RTVSPropertyOp47
 70
     1
102
RTVSPropertyOp48
 70
     1
102
RTVSPropertyOp49
 70
     1
102
RTVSPropertyOp50
 70
     1
102
RTVSPropertyOp51
 70
     0
102
RTVSPropertyOp52
 70
     0
102
RTVSPropertyOp53
 70
     1
102
RTVSPropertyOp54
 70
     1
102
RTVSPropertyOp55
 70
     1
102
RTVSPropertyOp56
 70
     1
102
RTVSPropertyOp57
 70
     1
102
RTVSPropertyOp58
 70
     1
102
RTVSPropertyOp59
 70
     1
102
RTVSPropertyOp60
 70
     1
102
RTVSPropertyOp61
 70
     1
102
RTVSPropertyOp62
 70
     1
  0
XRECORD
  5
ECB
102
{ACAD_REACTORS
330
ECA
102
}
330
ECA
100
AcDbXrecord
280
     1
102
RTVSPost2010Prop28
280
     0
102
RTVSPost2010PropOp28
 70
     1
102
RTVSPost2010Prop29
280
     1
102
RTVSPost2010PropOp29
 70
     1
102
RTVSPost2010Prop30
280
     1
102
RTVSPost2010PropOp30
 70
     1
102
RTVSPost2010Prop31
280
     0
102
RTVSPost2010PropOp31
 70
     1
102
RTVSPost2010Prop32
280
     0
102
RTVSPost2010PropOp32
 70
     1
102
RTVSPost2010Prop33
280
     0
102
RTVSPost2010PropOp33
 70
     1
102
RTVSPost2010Prop34
280
     0
102
RTVSPost2010PropOp34
 70
     1
102
RTVSPost2010Prop35
280
     0
102
RTVSPost2010PropOp35
 70
     1
102
RTVSPost2010Prop36
280
     0
102
RTVSPost2010PropOp36
 70
     1
102
RTVSPost2010Prop37
 90
       50
102
RTVSPost2010PropOp37
 70
     1
102
RTVSPost2010Prop38
140
0.0
102
RTVSPost2010PropOp38
 70
     1
102
RTVSPost2010Prop39
140
1.0
102
RTVSPost2010PropOp39
 70
     1
102
RTVSPost2010Prop40
 90
        0
102
RTVSPost2010PropOp40
 70
     1
102
RTVSPost2010Prop41ColorIndex
 90
       18
102
RTVSPost2010Prop41ColorRGB
 90
        0
102
RTVSPost2010PropOp41
 70
     1
102
RTVSPost2010Prop42
 90
       50
102
RTVSPost2010PropOp42
 70
     1
102
RTVSPost2010Prop43
 90
        3
102
RTVSPost2010PropOp43
 70
     1
102
RTVSPost2010Prop44ColorIndex
 90
        5
102
RTVSPost2010Prop44ColorRGB
 90
      255
102
RTVSPost2010PropOp44
 70
     1
102
RTVSPost2010Prop45
280
     0
102
RTVSPost2010PropOp45
 70
     1
102
RTVSPost2010Prop46
 90
       50
102
RTVSPost2010PropOp46
 70
     1
102
RTVSPost2010Prop47
 90
       50
102
RTVSPost2010PropOp47
 70
     1
102
RTVSPost2010Prop48
 90
       50
102
RTVSPost2010PropOp48
 70
     1
102
RTVSPost2010Prop49
280
     0
102
RTVSPost2010PropOp49
 70
     1
102
RTVSPost2010Prop50
 90
       50
102
RTVSPost2010PropOp50
 70
     1
102
RTVSPost2010Prop51ColorIndex
 90
      256
102
RTVSPost2010Prop51ColorRGB
 90
-16777216
102
RTVSPost2010PropOp51
 70
     0
102
RTVSPost2010Prop52
140
1.0
102
RTVSPost2010PropOp52
 70
     0
102
RTVSPost2010Prop53
 90
        2
102
RTVSPost2010PropOp53
 70
     1
102
RTVSPost2010Prop54
  1
strokes_ogs.tif
102
RTVSPost2010PropOp54
 70
     1
102
RTVSPost2010Prop55
280
     0
102
RTVSPost2010PropOp55
 70
     1
102
RTVSPost2010Prop56
140
1.0
102
RTVSPost2010PropOp56
 70
     1
102
RTVSPost2010Prop57
140
1.0
102
RTVSPost2010PropOp57
 70
     1
102
RTVSPropertyOp0
 70
     1
102
RTVSPropertyOp1
 70
     1
102
RTVSPropertyOp2
 70
     1
102
RTVSPropertyOp3
 70
     1
102
RTVSPropertyOp4
 70
     1
102
RTVSPropertyOp5
 70
     1
102
RTVSPropertyOp6
 70
     1
102
RTVSPropertyOp7
 70
     1
102
RTVSPropertyOp8
 70
     1
102
RTVSPropertyOp9
 70
     1
102
RTVSPropertyOp10
 70
     1
102
RTVSPropertyOp11
 70
     1
102
RTVSPropertyOp12
 70
     1
102
RTVSPropertyOp13
 70
     1
102
RTVSPropertyOp14
 70
     1
102
RTVSPropertyOp15
 70
     1
102
RTVSPropertyOp16
 70
     1
102
RTVSPropertyOp17
 70
     1
102
RTVSPropertyOp18
 70
     1
102
RTVSPropertyOp19
 70
     1
102
RTVSPropertyOp20
 70
     1
102
RTVSPropertyOp21
 70
     1
102
RTVSPropertyOp22
 70
     1
102
RTVSPropertyOp23
 70
     1
102
RTVSPropertyOp24
 70
     1
102
RTVSPropertyOp25
 70
     1
102
RTVSPropertyOp26
 70
     1
102
RTVSPropertyOp27
 70
     1
102
RTVSPropertyOp28
 70
     1
102
RTVSPropertyOp29
 70
     1
102
RTVSPropertyOp30
 70
     1
102
RTVSPropertyOp31
 70
     1
102
RTVSPropertyOp32
 70
     1
102
RTVSPropertyOp33
 70
     1
102
RTVSPropertyOp34
 70
     1
102
RTVSPropertyOp35
 70
     1
102
RTVSPropertyOp36
 70
     1
102
RTVSPropertyOp37
 70
     1
102
RTVSPropertyOp38
 70
     1
102
RTVSPropertyOp39
 70
     1
102
RTVSPropertyOp40
 70
     1
102
RTVSPropertyOp41
 70
     1
102
RTVSPropertyOp42
 70
     1
102
RTVSPropertyOp43
 70
     1
102
RTVSPropertyOp44
 70
     1
102
RTVSPropertyOp45
 70
     1
102
RTVSPropertyOp46
 70
     1
102
RTVSPropertyOp47
 70
     1
102
RTVSPropertyOp48
 70
     1
102
RTVSPropertyOp49
 70
     1
102
RTVSPropertyOp50
 70
     1
102
RTVSPropertyOp51
 70
     0
102
RTVSPropertyOp52
 70
     0
102
RTVSPropertyOp53
 70
     1
102
RTVSPropertyOp54
 70
     1
102
RTVSPropertyOp55
 70
     1
102
RTVSPropertyOp56
 70
     1
102
RTVSPropertyOp57
 70
     1
102
RTVSPropertyOp58
 70
     1
102
RTVSPropertyOp59
 70
     1
102
RTVSPropertyOp60
 70
     1
102
RTVSPropertyOp61
 70
     1
102
RTVSPropertyOp62
 70
     1
  0
XRECORD
  5
ED3
102
{ACAD_REACTORS
330
ED2
102
}
330
ED2
100
AcDbXrecord
280
     1
102
RTVSPost2010Prop28
280
     0
102
RTVSPost2010PropOp28
 70
     1
102
RTVSPost2010Prop29
280
     1
102
RTVSPost2010PropOp29
 70
     1
102
RTVSPost2010Prop30
280
     1
102
RTVSPost2010PropOp30
 70
     1
102
RTVSPost2010Prop31
280
     0
102
RTVSPost2010PropOp31
 70
     1
102
RTVSPost2010Prop32
280
     0
102
RTVSPost2010PropOp32
 70
     1
102
RTVSPost2010Prop33
280
     0
102
RTVSPost2010PropOp33
 70
     1
102
RTVSPost2010Prop34
280
     0
102
RTVSPost2010PropOp34
 70
     1
102
RTVSPost2010Prop35
280
     0
102
RTVSPost2010PropOp35
 70
     1
102
RTVSPost2010Prop36
280
     0
102
RTVSPost2010PropOp36
 70
     1
102
RTVSPost2010Prop37
 90
       50
102
RTVSPost2010PropOp37
 70
     1
102
RTVSPost2010Prop38
140
0.0
102
RTVSPost2010PropOp38
 70
     1
102
RTVSPost2010Prop39
140
1.0
102
RTVSPost2010PropOp39
 70
     1
102
RTVSPost2010Prop40
 90
        0
102
RTVSPost2010PropOp40
 70
     1
102
RTVSPost2010Prop41ColorIndex
 90
       18
102
RTVSPost2010Prop41ColorRGB
 90
        0
102
RTVSPost2010PropOp41
 70
     1
102
RTVSPost2010Prop42
 90
       50
102
RTVSPost2010PropOp42
 70
     1
102
RTVSPost2010Prop43
 90
        3
102
RTVSPost2010PropOp43
 70
     1
102
RTVSPost2010Prop44ColorIndex
 90
        5
102
RTVSPost2010Prop44ColorRGB
 90
      255
102
RTVSPost2010PropOp44
 70
     1
102
RTVSPost2010Prop45
280
     0
102
RTVSPost2010PropOp45
 70
     1
102
RTVSPost2010Prop46
 90
       50
102
RTVSPost2010PropOp46
 70
     1
102
RTVSPost2010Prop47
 90
       50
102
RTVSPost2010PropOp47
 70
     1
102
RTVSPost2010Prop48
 90
       50
102
RTVSPost2010PropOp48
 70
     1
102
RTVSPost2010Prop49
280
     0
102
RTVSPost2010PropOp49
 70
     1
102
RTVSPost2010Prop50
 90
       50
102
RTVSPost2010PropOp50
 70
     1
102
RTVSPost2010Prop51ColorIndex
 90
      256
102
RTVSPost2010Prop51ColorRGB
 90
-16777216
102
RTVSPost2010PropOp51
 70
     0
102
RTVSPost2010Prop52
140
1.0
102
RTVSPost2010PropOp52
 70
     0
102
RTVSPost2010Prop53
 90
        2
102
RTVSPost2010PropOp53
 70
     1
102
RTVSPost2010Prop54
  1
strokes_ogs.tif
102
RTVSPost2010PropOp54
 70
     1
102
RTVSPost2010Prop55
280
     0
102
RTVSPost2010PropOp55
 70
     1
102
RTVSPost2010Prop56
140
1.0
102
RTVSPost2010PropOp56
 70
     1
102
RTVSPost2010Prop57
140
1.0
102
RTVSPost2010PropOp57
 70
     1
102
RTVSPropertyOp0
 70
     1
102
RTVSPropertyOp1
 70
     1
102
RTVSPropertyOp2
 70
     1
102
RTVSPropertyOp3
 70
     1
102
RTVSPropertyOp4
 70
     1
102
RTVSPropertyOp5
 70
     1
102
RTVSPropertyOp6
 70
     1
102
RTVSPropertyOp7
 70
     1
102
RTVSPropertyOp8
 70
     1
102
RTVSPropertyOp9
 70
     1
102
RTVSPropertyOp10
 70
     1
102
RTVSPropertyOp11
 70
     1
102
RTVSPropertyOp12
 70
     1
102
RTVSPropertyOp13
 70
     1
102
RTVSPropertyOp14
 70
     1
102
RTVSPropertyOp15
 70
     1
102
RTVSPropertyOp16
 70
     1
102
RTVSPropertyOp17
 70
     1
102
RTVSPropertyOp18
 70
     1
102
RTVSPropertyOp19
 70
     1
102
RTVSPropertyOp20
 70
     1
102
RTVSPropertyOp21
 70
     1
102
RTVSPropertyOp22
 70
     1
102
RTVSPropertyOp23
 70
     1
102
RTVSPropertyOp24
 70
     1
102
RTVSPropertyOp25
 70
     1
102
RTVSPropertyOp26
 70
     1
102
RTVSPropertyOp27
 70
     1
102
RTVSPropertyOp28
 70
     1
102
RTVSPropertyOp29
 70
     1
102
RTVSPropertyOp30
 70
     1
102
RTVSPropertyOp31
 70
     1
102
RTVSPropertyOp32
 70
     1
102
RTVSPropertyOp33
 70
     1
102
RTVSPropertyOp34
 70
     1
102
RTVSPropertyOp35
 70
     1
102
RTVSPropertyOp36
 70
     1
102
RTVSPropertyOp37
 70
     1
102
RTVSPropertyOp38
 70
     1
102
RTVSPropertyOp39
 70
     1
102
RTVSPropertyOp40
 70
     1
102
RTVSPropertyOp41
 70
     1
102
RTVSPropertyOp42
 70
     1
102
RTVSPropertyOp43
 70
     1
102
RTVSPropertyOp44
 70
     1
102
RTVSPropertyOp45
 70
     1
102
RTVSPropertyOp46
 70
     1
102
RTVSPropertyOp47
 70
     1
102
RTVSPropertyOp48
 70
     1
102
RTVSPropertyOp49
 70
     1
102
RTVSPropertyOp50
 70
     1
102
RTVSPropertyOp51
 70
     0
102
RTVSPropertyOp52
 70
     0
102
RTVSPropertyOp53
 70
     1
102
RTVSPropertyOp54
 70
     1
102
RTVSPropertyOp55
 70
     1
102
RTVSPropertyOp56
 70
     1
102
RTVSPropertyOp57
 70
     1
102
RTVSPropertyOp58
 70
     1
102
RTVSPropertyOp59
 70
     1
102
RTVSPropertyOp60
 70
     1
102
RTVSPropertyOp61
 70
     1
102
RTVSPropertyOp62
 70
     1
  0
XRECORD
  5
EC5
102
{ACAD_REACTORS
330
EC4
102
}
330
EC4
100
AcDbXrecord
280
     1
102
RTVSPost2010Prop28
280
     0
102
RTVSPost2010PropOp28
 70
     1
102
RTVSPost2010Prop29
280
     1
102
RTVSPost2010PropOp29
 70
     1
102
RTVSPost2010Prop30
280
     1
102
RTVSPost2010PropOp30
 70
     1
102
RTVSPost2010Prop31
280
     0
102
RTVSPost2010PropOp31
 70
     1
102
RTVSPost2010Prop32
280
     0
102
RTVSPost2010PropOp32
 70
     1
102
RTVSPost2010Prop33
280
     0
102
RTVSPost2010PropOp33
 70
     1
102
RTVSPost2010Prop34
280
     0
102
RTVSPost2010PropOp34
 70
     1
102
RTVSPost2010Prop35
280
     0
102
RTVSPost2010PropOp35
 70
     1
102
RTVSPost2010Prop36
280
     0
102
RTVSPost2010PropOp36
 70
     1
102
RTVSPost2010Prop37
 90
       50
102
RTVSPost2010PropOp37
 70
     1
102
RTVSPost2010Prop38
140
0.0
102
RTVSPost2010PropOp38
 70
     1
102
RTVSPost2010Prop39
140
1.0
102
RTVSPost2010PropOp39
 70
     1
102
RTVSPost2010Prop40
 90
        0
102
RTVSPost2010PropOp40
 70
     1
102
RTVSPost2010Prop41ColorIndex
 90
       18
102
RTVSPost2010Prop41ColorRGB
 90
        0
102
RTVSPost2010PropOp41
 70
     1
102
RTVSPost2010Prop42
 90
       50
102
RTVSPost2010PropOp42
 70
     1
102
RTVSPost2010Prop43
 90
        3
102
RTVSPost2010PropOp43
 70
     1
102
RTVSPost2010Prop44ColorIndex
 90
        5
102
RTVSPost2010Prop44ColorRGB
 90
      255
102
RTVSPost2010PropOp44
 70
     1
102
RTVSPost2010Prop45
280
     0
102
RTVSPost2010PropOp45
 70
     1
102
RTVSPost2010Prop46
 90
       50
102
RTVSPost2010PropOp46
 70
     1
102
RTVSPost2010Prop47
 90
       50
102
RTVSPost2010PropOp47
 70
     1
102
RTVSPost2010Prop48
 90
       50
102
RTVSPost2010PropOp48
 70
     1
102
RTVSPost2010Prop49
280
     0
102
RTVSPost2010PropOp49
 70
     1
102
RTVSPost2010Prop50
 90
       50
102
RTVSPost2010PropOp50
 70
     1
102
RTVSPost2010Prop51ColorIndex
 90
      256
102
RTVSPost2010Prop51ColorRGB
 90
-16777216
102
RTVSPost2010PropOp51
 70
     0
102
RTVSPost2010Prop52
140
1.0
102
RTVSPost2010PropOp52
 70
     0
102
RTVSPost2010Prop53
 90
        2
102
RTVSPost2010PropOp53
 70
     1
102
RTVSPost2010Prop54
  1
strokes_ogs.tif
102
RTVSPost2010PropOp54
 70
     1
102
RTVSPost2010Prop55
280
     0
102
RTVSPost2010PropOp55
 70
     1
102
RTVSPost2010Prop56
140
1.0
102
RTVSPost2010PropOp56
 70
     1
102
RTVSPost2010Prop57
140
1.0
102
RTVSPost2010PropOp57
 70
     1
102
RTVSPropertyOp0
 70
     1
102
RTVSPropertyOp1
 70
     1
102
RTVSPropertyOp2
 70
     1
102
RTVSPropertyOp3
 70
     1
102
RTVSPropertyOp4
 70
     1
102
RTVSPropertyOp5
 70
     1
102
RTVSPropertyOp6
 70
     1
102
RTVSPropertyOp7
 70
     1
102
RTVSPropertyOp8
 70
     1
102
RTVSPropertyOp9
 70
     1
102
RTVSPropertyOp10
 70
     1
102
RTVSPropertyOp11
 70
     1
102
RTVSPropertyOp12
 70
     1
102
RTVSPropertyOp13
 70
     1
102
RTVSPropertyOp14
 70
     1
102
RTVSPropertyOp15
 70
     1
102
RTVSPropertyOp16
 70
     1
102
RTVSPropertyOp17
 70
     1
102
RTVSPropertyOp18
 70
     1
102
RTVSPropertyOp19
 70
     1
102
RTVSPropertyOp20
 70
     1
102
RTVSPropertyOp21
 70
     1
102
RTVSPropertyOp22
 70
     1
102
RTVSPropertyOp23
 70
     1
102
RTVSPropertyOp24
 70
     1
102
RTVSPropertyOp25
 70
     1
102
RTVSPropertyOp26
 70
     1
102
RTVSPropertyOp27
 70
     1
102
RTVSPropertyOp28
 70
     1
102
RTVSPropertyOp29
 70
     1
102
RTVSPropertyOp30
 70
     1
102
RTVSPropertyOp31
 70
     1
102
RTVSPropertyOp32
 70
     1
102
RTVSPropertyOp33
 70
     1
102
RTVSPropertyOp34
 70
     1
102
RTVSPropertyOp35
 70
     1
102
RTVSPropertyOp36
 70
     1
102
RTVSPropertyOp37
 70
     1
102
RTVSPropertyOp38
 70
     1
102
RTVSPropertyOp39
 70
     1
102
RTVSPropertyOp40
 70
     1
102
RTVSPropertyOp41
 70
     1
102
RTVSPropertyOp42
 70
     1
102
RTVSPropertyOp43
 70
     1
102
RTVSPropertyOp44
 70
     1
102
RTVSPropertyOp45
 70
     1
102
RTVSPropertyOp46
 70
     1
102
RTVSPropertyOp47
 70
     1
102
RTVSPropertyOp48
 70
     1
102
RTVSPropertyOp49
 70
     1
102
RTVSPropertyOp50
 70
     1
102
RTVSPropertyOp51
 70
     0
102
RTVSPropertyOp52
 70
     0
102
RTVSPropertyOp53
 70
     1
102
RTVSPropertyOp54
 70
     1
102
RTVSPropertyOp55
 70
     1
102
RTVSPropertyOp56
 70
     1
102
RTVSPropertyOp57
 70
     1
102
RTVSPropertyOp58
 70
     1
102
RTVSPropertyOp59
 70
     1
102
RTVSPropertyOp60
 70
     1
102
RTVSPropertyOp61
 70
     1
102
RTVSPropertyOp62
 70
     1
  0
XRECORD
  5
EC9
102
{ACAD_REACTORS
330
EC8
102
}
330
EC8
100
AcDbXrecord
280
     1
102
RTVSPost2010Prop28
280
     0
102
RTVSPost2010PropOp28
 70
     1
102
RTVSPost2010Prop29
280
     1
102
RTVSPost2010PropOp29
 70
     1
102
RTVSPost2010Prop30
280
     1
102
RTVSPost2010PropOp30
 70
     1
102
RTVSPost2010Prop31
280
     0
102
RTVSPost2010PropOp31
 70
     1
102
RTVSPost2010Prop32
280
     0
102
RTVSPost2010PropOp32
 70
     1
102
RTVSPost2010Prop33
280
     0
102
RTVSPost2010PropOp33
 70
     1
102
RTVSPost2010Prop34
280
     0
102
RTVSPost2010PropOp34
 70
     1
102
RTVSPost2010Prop35
280
     0
102
RTVSPost2010PropOp35
 70
     1
102
RTVSPost2010Prop36
280
     0
102
RTVSPost2010PropOp36
 70
     1
102
RTVSPost2010Prop37
 90
       50
102
RTVSPost2010PropOp37
 70
     1
102
RTVSPost2010Prop38
140
0.0
102
RTVSPost2010PropOp38
 70
     1
102
RTVSPost2010Prop39
140
1.0
102
RTVSPost2010PropOp39
 70
     1
102
RTVSPost2010Prop40
 90
        0
102
RTVSPost2010PropOp40
 70
     1
102
RTVSPost2010Prop41ColorIndex
 90
       18
102
RTVSPost2010Prop41ColorRGB
 90
        0
102
RTVSPost2010PropOp41
 70
     1
102
RTVSPost2010Prop42
 90
       50
102
RTVSPost2010PropOp42
 70
     1
102
RTVSPost2010Prop43
 90
        3
102
RTVSPost2010PropOp43
 70
     1
102
RTVSPost2010Prop44ColorIndex
 90
        5
102
RTVSPost2010Prop44ColorRGB
 90
      255
102
RTVSPost2010PropOp44
 70
     1
102
RTVSPost2010Prop45
280
     0
102
RTVSPost2010PropOp45
 70
     1
102
RTVSPost2010Prop46
 90
       50
102
RTVSPost2010PropOp46
 70
     1
102
RTVSPost2010Prop47
 90
       50
102
RTVSPost2010PropOp47
 70
     1
102
RTVSPost2010Prop48
 90
       50
102
RTVSPost2010PropOp48
 70
     1
102
RTVSPost2010Prop49
280
     0
102
RTVSPost2010PropOp49
 70
     1
102
RTVSPost2010Prop50
 90
       50
102
RTVSPost2010PropOp50
 70
     1
102
RTVSPost2010Prop51ColorIndex
 90
      256
102
RTVSPost2010Prop51ColorRGB
 90
-16777216
102
RTVSPost2010PropOp51
 70
     0
102
RTVSPost2010Prop52
140
1.0
102
RTVSPost2010PropOp52
 70
     0
102
RTVSPost2010Prop53
 90
        2
102
RTVSPost2010PropOp53
 70
     1
102
RTVSPost2010Prop54
  1
strokes_ogs.tif
102
RTVSPost2010PropOp54
 70
     1
102
RTVSPost2010Prop55
280
     0
102
RTVSPost2010PropOp55
 70
     1
102
RTVSPost2010Prop56
140
1.0
102
RTVSPost2010PropOp56
 70
     1
102
RTVSPost2010Prop57
140
1.0
102
RTVSPost2010PropOp57
 70
     1
102
RTVSPropertyOp0
 70
     1
102
RTVSPropertyOp1
 70
     1
102
RTVSPropertyOp2
 70
     1
102
RTVSPropertyOp3
 70
     1
102
RTVSPropertyOp4
 70
     1
102
RTVSPropertyOp5
 70
     1
102
RTVSPropertyOp6
 70
     1
102
RTVSPropertyOp7
 70
     1
102
RTVSPropertyOp8
 70
     1
102
RTVSPropertyOp9
 70
     1
102
RTVSPropertyOp10
 70
     1
102
RTVSPropertyOp11
 70
     1
102
RTVSPropertyOp12
 70
     1
102
RTVSPropertyOp13
 70
     1
102
RTVSPropertyOp14
 70
     1
102
RTVSPropertyOp15
 70
     1
102
RTVSPropertyOp16
 70
     1
102
RTVSPropertyOp17
 70
     1
102
RTVSPropertyOp18
 70
     1
102
RTVSPropertyOp19
 70
     1
102
RTVSPropertyOp20
 70
     1
102
RTVSPropertyOp21
 70
     1
102
RTVSPropertyOp22
 70
     1
102
RTVSPropertyOp23
 70
     1
102
RTVSPropertyOp24
 70
     1
102
RTVSPropertyOp25
 70
     1
102
RTVSPropertyOp26
 70
     1
102
RTVSPropertyOp27
 70
     1
102
RTVSPropertyOp28
 70
     1
102
RTVSPropertyOp29
 70
     1
102
RTVSPropertyOp30
 70
     1
102
RTVSPropertyOp31
 70
     1
102
RTVSPropertyOp32
 70
     1
102
RTVSPropertyOp33
 70
     1
102
RTVSPropertyOp34
 70
     1
102
RTVSPropertyOp35
 70
     1
102
RTVSPropertyOp36
 70
     1
102
RTVSPropertyOp37
 70
     1
102
RTVSPropertyOp38
 70
     1
102
RTVSPropertyOp39
 70
     1
102
RTVSPropertyOp40
 70
     1
102
RTVSPropertyOp41
 70
     1
102
RTVSPropertyOp42
 70
     1
102
RTVSPropertyOp43
 70
     1
102
RTVSPropertyOp44
 70
     1
102
RTVSPropertyOp45
 70
     1
102
RTVSPropertyOp46
 70
     1
102
RTVSPropertyOp47
 70
     1
102
RTVSPropertyOp48
 70
     1
102
RTVSPropertyOp49
 70
     1
102
RTVSPropertyOp50
 70
     1
102
RTVSPropertyOp51
 70
     0
102
RTVSPropertyOp52
 70
     0
102
RTVSPropertyOp53
 70
     1
102
RTVSPropertyOp54
 70
     1
102
RTVSPropertyOp55
 70
     1
102
RTVSPropertyOp56
 70
     1
102
RTVSPropertyOp57
 70
     1
102
RTVSPropertyOp58
 70
     1
102
RTVSPropertyOp59
 70
     1
102
RTVSPropertyOp60
 70
     1
102
RTVSPropertyOp61
 70
     1
102
RTVSPropertyOp62
 70
     1
  0
XRECORD
  5
EE3
102
{ACAD_REACTORS
330
EE2
102
}
330
EE2
100
AcDbXrecord
280
     1
102
RTVSPost2010Prop28
280
     0
102
RTVSPost2010PropOp28
 70
     0
102
RTVSPost2010Prop29
280
     1
102
RTVSPost2010PropOp29
 70
     0
102
RTVSPost2010Prop30
280
     1
102
RTVSPost2010PropOp30
 70
     0
102
RTVSPost2010Prop31
280
     0
102
RTVSPost2010PropOp31
 70
     0
102
RTVSPost2010Prop32
280
     0
102
RTVSPost2010PropOp32
 70
     0
102
RTVSPost2010Prop33
280
     0
102
RTVSPost2010PropOp33
 70
     0
102
RTVSPost2010Prop34
280
     0
102
RTVSPost2010PropOp34
 70
     0
102
RTVSPost2010Prop35
280
     0
102
RTVSPost2010PropOp35
 70
     0
102
RTVSPost2010Prop36
280
     0
102
RTVSPost2010PropOp36
 70
     0
102
RTVSPost2010Prop37
 90
       50
102
RTVSPost2010PropOp37
 70
     0
102
RTVSPost2010Prop38
140
0.0
102
RTVSPost2010PropOp38
 70
     0
102
RTVSPost2010Prop39
140
1.0
102
RTVSPost2010PropOp39
 70
     0
102
RTVSPost2010Prop40
 90
        0
102
RTVSPost2010PropOp40
 70
     0
102
RTVSPost2010Prop41ColorIndex
 90
       18
102
RTVSPost2010Prop41ColorRGB
 90
        0
102
RTVSPost2010PropOp41
 70
     0
102
RTVSPost2010Prop42
 90
       50
102
RTVSPost2010PropOp42
 70
     0
102
RTVSPost2010Prop43
 90
        3
102
RTVSPost2010PropOp43
 70
     0
102
RTVSPost2010Prop44ColorIndex
 90
        5
102
RTVSPost2010Prop44ColorRGB
 90
      255
102
RTVSPost2010PropOp44
 70
     0
102
RTVSPost2010Prop45
280
     0
102
RTVSPost2010PropOp45
 70
     0
102
RTVSPost2010Prop46
 90
       50
102
RTVSPost2010PropOp46
 70
     0
102
RTVSPost2010Prop47
 90
       50
102
RTVSPost2010PropOp47
 70
     0
102
RTVSPost2010Prop48
 90
       50
102
RTVSPost2010PropOp48
 70
     0
102
RTVSPost2010Prop49
280
     0
102
RTVSPost2010PropOp49
 70
     0
102
RTVSPost2010Prop50
 90
       50
102
RTVSPost2010PropOp50
 70
     0
102
RTVSPost2010Prop51ColorIndex
 90
      256
102
RTVSPost2010Prop51ColorRGB
 90
-16777216
102
RTVSPost2010PropOp51
 70
     0
102
RTVSPost2010Prop52
140
1.0
102
RTVSPost2010PropOp52
 70
     0
102
RTVSPost2010Prop53
 90
        2
102
RTVSPost2010PropOp53
 70
     0
102
RTVSPost2010Prop54
  1
strokes_ogs.tif
102
RTVSPost2010PropOp54
 70
     0
102
RTVSPost2010Prop55
280
     0
102
RTVSPost2010PropOp55
 70
     0
102
RTVSPost2010Prop56
140
1.0
102
RTVSPost2010PropOp56
 70
     0
102
RTVSPost2010Prop57
140
1.0
102
RTVSPost2010PropOp57
 70
     0
102
RTVSPropertyOp0
 70
     0
102
RTVSPropertyOp1
 70
     0
102
RTVSPropertyOp2
 70
     0
102
RTVSPropertyOp3
 70
     0
102
RTVSPropertyOp4
 70
     0
102
RTVSPropertyOp5
 70
     0
102
RTVSPropertyOp6
 70
     0
102
RTVSPropertyOp7
 70
     0
102
RTVSPropertyOp8
 70
     0
102
RTVSPropertyOp9
 70
     0
102
RTVSPropertyOp10
 70
     0
102
RTVSPropertyOp11
 70
     0
102
RTVSPropertyOp12
 70
     0
102
RTVSPropertyOp13
 70
     0
102
RTVSPropertyOp14
 70
     2
102
RTVSPropertyOp15
 70
     0
102
RTVSPropertyOp16
 70
     0
102
RTVSPropertyOp17
 70
     0
102
RTVSPropertyOp18
 70
     0
102
RTVSPropertyOp19
 70
     0
102
RTVSPropertyOp20
 70
     0
102
RTVSPropertyOp21
 70
     0
102
RTVSPropertyOp22
 70
     0
102
RTVSPropertyOp23
 70
     0
102
RTVSPropertyOp24
 70
     0
102
RTVSPropertyOp25
 70
     0
102
RTVSPropertyOp26
 70
     0
102
RTVSPropertyOp27
 70
     0
102
RTVSPropertyOp28
 70
     0
102
RTVSPropertyOp29
 70
     0
102
RTVSPropertyOp30
 70
     0
102
RTVSPropertyOp31
 70
     0
102
RTVSPropertyOp32
 70
     0
102
RTVSPropertyOp33
 70
     0
102
RTVSPropertyOp34
 70
     0
102
RTVSPropertyOp35
 70
     0
102
RTVSPropertyOp36
 70
     0
102
RTVSPropertyOp37
 70
     0
102
RTVSPropertyOp38
 70
     0
102
RTVSPropertyOp39
 70
     0
102
RTVSPropertyOp40
 70
     0
102
RTVSPropertyOp41
 70
     0
102
RTVSPropertyOp42
 70
     0
102
RTVSPropertyOp43
 70
     0
102
RTVSPropertyOp44
 70
     0
102
RTVSPropertyOp45
 70
     0
102
RTVSPropertyOp46
 70
     0
102
RTVSPropertyOp47
 70
     0
102
RTVSPropertyOp48
 70
     0
102
RTVSPropertyOp49
 70
     0
102
RTVSPropertyOp50
 70
     0
102
RTVSPropertyOp51
 70
     0
102
RTVSPropertyOp52
 70
     0
102
RTVSPropertyOp53
 70
     0
102
RTVSPropertyOp54
 70
     0
102
RTVSPropertyOp55
 70
     0
102
RTVSPropertyOp56
 70
     0
102
RTVSPropertyOp57
 70
     0
102
RTVSPropertyOp58
 70
     1
102
RTVSPropertyOp59
 70
     1
102
RTVSPropertyOp60
 70
     1
102
RTVSPropertyOp61
 70
     1
102
RTVSPropertyOp62
 70
     1
  0
XRECORD
  5
ED1
102
{ACAD_REACTORS
330
ED0
102
}
330
ED0
100
AcDbXrecord
280
     1
102
RTVSPost2010Prop28
280
     0
102
RTVSPost2010PropOp28
 70
     1
102
RTVSPost2010Prop29
280
     1
102
RTVSPost2010PropOp29
 70
     1
102
RTVSPost2010Prop30
280
     1
102
RTVSPost2010PropOp30
 70
     1
102
RTVSPost2010Prop31
280
     0
102
RTVSPost2010PropOp31
 70
     1
102
RTVSPost2010Prop32
280
     0
102
RTVSPost2010PropOp32
 70
     1
102
RTVSPost2010Prop33
280
     0
102
RTVSPost2010PropOp33
 70
     1
102
RTVSPost2010Prop34
280
     0
102
RTVSPost2010PropOp34
 70
     1
102
RTVSPost2010Prop35
280
     0
102
RTVSPost2010PropOp35
 70
     1
102
RTVSPost2010Prop36
280
     0
102
RTVSPost2010PropOp36
 70
     1
102
RTVSPost2010Prop37
 90
       50
102
RTVSPost2010PropOp37
 70
     1
102
RTVSPost2010Prop38
140
0.0
102
RTVSPost2010PropOp38
 70
     1
102
RTVSPost2010Prop39
140
1.0
102
RTVSPost2010PropOp39
 70
     1
102
RTVSPost2010Prop40
 90
        0
102
RTVSPost2010PropOp40
 70
     1
102
RTVSPost2010Prop41ColorIndex
 90
       18
102
RTVSPost2010Prop41ColorRGB
 90
        0
102
RTVSPost2010PropOp41
 70
     1
102
RTVSPost2010Prop42
 90
       50
102
RTVSPost2010PropOp42
 70
     1
102
RTVSPost2010Prop43
 90
        3
102
RTVSPost2010PropOp43
 70
     1
102
RTVSPost2010Prop44ColorIndex
 90
        5
102
RTVSPost2010Prop44ColorRGB
 90
      255
102
RTVSPost2010PropOp44
 70
     1
102
RTVSPost2010Prop45
280
     0
102
RTVSPost2010PropOp45
 70
     1
102
RTVSPost2010Prop46
 90
       50
102
RTVSPost2010PropOp46
 70
     1
102
RTVSPost2010Prop47
 90
       50
102
RTVSPost2010PropOp47
 70
     1
102
RTVSPost2010Prop48
 90
       50
102
RTVSPost2010PropOp48
 70
     1
102
RTVSPost2010Prop49
280
     0
102
RTVSPost2010PropOp49
 70
     1
102
RTVSPost2010Prop50
 90
       50
102
RTVSPost2010PropOp50
 70
     1
102
RTVSPost2010Prop51ColorIndex
 90
      256
102
RTVSPost2010Prop51ColorRGB
 90
-16777216
102
RTVSPost2010PropOp51
 70
     0
102
RTVSPost2010Prop52
140
1.0
102
RTVSPost2010PropOp52
 70
     0
102
RTVSPost2010Prop53
 90
        2
102
RTVSPost2010PropOp53
 70
     1
102
RTVSPost2010Prop54
  1
strokes_ogs.tif
102
RTVSPost2010PropOp54
 70
     1
102
RTVSPost2010Prop55
280
     0
102
RTVSPost2010PropOp55
 70
     1
102
RTVSPost2010Prop56
140
1.0
102
RTVSPost2010PropOp56
 70
     1
102
RTVSPost2010Prop57
140
1.0
102
RTVSPost2010PropOp57
 70
     1
102
RTVSPropertyOp0
 70
     1
102
RTVSPropertyOp1
 70
     1
102
RTVSPropertyOp2
 70
     1
102
RTVSPropertyOp3
 70
     1
102
RTVSPropertyOp4
 70
     1
102
RTVSPropertyOp5
 70
     1
102
RTVSPropertyOp6
 70
     1
102
RTVSPropertyOp7
 70
     1
102
RTVSPropertyOp8
 70
     1
102
RTVSPropertyOp9
 70
     1
102
RTVSPropertyOp10
 70
     1
102
RTVSPropertyOp11
 70
     1
102
RTVSPropertyOp12
 70
     1
102
RTVSPropertyOp13
 70
     1
102
RTVSPropertyOp14
 70
     1
102
RTVSPropertyOp15
 70
     1
102
RTVSPropertyOp16
 70
     1
102
RTVSPropertyOp17
 70
     1
102
RTVSPropertyOp18
 70
     1
102
RTVSPropertyOp19
 70
     1
102
RTVSPropertyOp20
 70
     1
102
RTVSPropertyOp21
 70
     1
102
RTVSPropertyOp22
 70
     1
102
RTVSPropertyOp23
 70
     1
102
RTVSPropertyOp24
 70
     1
102
RTVSPropertyOp25
 70
     1
102
RTVSPropertyOp26
 70
     1
102
RTVSPropertyOp27
 70
     1
102
RTVSPropertyOp28
 70
     1
102
RTVSPropertyOp29
 70
     1
102
RTVSPropertyOp30
 70
     1
102
RTVSPropertyOp31
 70
     1
102
RTVSPropertyOp32
 70
     1
102
RTVSPropertyOp33
 70
     1
102
RTVSPropertyOp34
 70
     1
102
RTVSPropertyOp35
 70
     1
102
RTVSPropertyOp36
 70
     1
102
RTVSPropertyOp37
 70
     1
102
RTVSPropertyOp38
 70
     1
102
RTVSPropertyOp39
 70
     1
102
RTVSPropertyOp40
 70
     1
102
RTVSPropertyOp41
 70
     1
102
RTVSPropertyOp42
 70
     1
102
RTVSPropertyOp43
 70
     1
102
RTVSPropertyOp44
 70
     1
102
RTVSPropertyOp45
 70
     1
102
RTVSPropertyOp46
 70
     1
102
RTVSPropertyOp47
 70
     1
102
RTVSPropertyOp48
 70
     1
102
RTVSPropertyOp49
 70
     1
102
RTVSPropertyOp50
 70
     1
102
RTVSPropertyOp51
 70
     0
102
RTVSPropertyOp52
 70
     0
102
RTVSPropertyOp53
 70
     1
102
RTVSPropertyOp54
 70
     1
102
RTVSPropertyOp55
 70
     1
102
RTVSPropertyOp56
 70
     1
102
RTVSPropertyOp57
 70
     1
102
RTVSPropertyOp58
 70
     1
102
RTVSPropertyOp59
 70
     1
102
RTVSPropertyOp60
 70
     1
102
RTVSPropertyOp61
 70
     1
102
RTVSPropertyOp62
 70
     1
  0
XRECORD
  5
EB5
102
{ACAD_REACTORS
330
EB4
102
}
330
EB4
100
AcDbXrecord
280
     1
102
RTVSPost2010Prop28
280
     0
102
RTVSPost2010PropOp28
 70
     1
102
RTVSPost2010Prop29
280
     1
102
RTVSPost2010PropOp29
 70
     1
102
RTVSPost2010Prop30
280
     1
102
RTVSPost2010PropOp30
 70
     1
102
RTVSPost2010Prop31
280
     0
102
RTVSPost2010PropOp31
 70
     1
102
RTVSPost2010Prop32
280
     0
102
RTVSPost2010PropOp32
 70
     1
102
RTVSPost2010Prop33
280
     0
102
RTVSPost2010PropOp33
 70
     1
102
RTVSPost2010Prop34
280
     0
102
RTVSPost2010PropOp34
 70
     1
102
RTVSPost2010Prop35
280
     0
102
RTVSPost2010PropOp35
 70
     1
102
RTVSPost2010Prop36
280
     0
102
RTVSPost2010PropOp36
 70
     1
102
RTVSPost2010Prop37
 90
       50
102
RTVSPost2010PropOp37
 70
     1
102
RTVSPost2010Prop38
140
0.0
102
RTVSPost2010PropOp38
 70
     1
102
RTVSPost2010Prop39
140
1.0
102
RTVSPost2010PropOp39
 70
     1
102
RTVSPost2010Prop40
 90
        0
102
RTVSPost2010PropOp40
 70
     1
102
RTVSPost2010Prop41ColorIndex
 90
       18
102
RTVSPost2010Prop41ColorRGB
 90
        0
102
RTVSPost2010PropOp41
 70
     1
102
RTVSPost2010Prop42
 90
       50
102
RTVSPost2010PropOp42
 70
     1
102
RTVSPost2010Prop43
 90
        3
102
RTVSPost2010PropOp43
 70
     1
102
RTVSPost2010Prop44ColorIndex
 90
        5
102
RTVSPost2010Prop44ColorRGB
 90
      255
102
RTVSPost2010PropOp44
 70
     1
102
RTVSPost2010Prop45
280
     0
102
RTVSPost2010PropOp45
 70
     1
102
RTVSPost2010Prop46
 90
       50
102
RTVSPost2010PropOp46
 70
     1
102
RTVSPost2010Prop47
 90
       50
102
RTVSPost2010PropOp47
 70
     1
102
RTVSPost2010Prop48
 90
       50
102
RTVSPost2010PropOp48
 70
     1
102
RTVSPost2010Prop49
280
     0
102
RTVSPost2010PropOp49
 70
     1
102
RTVSPost2010Prop50
 90
       50
102
RTVSPost2010PropOp50
 70
     1
102
RTVSPost2010Prop51ColorIndex
 90
      256
102
RTVSPost2010Prop51ColorRGB
 90
-16777216
102
RTVSPost2010PropOp51
 70
     0
102
RTVSPost2010Prop52
140
1.0
102
RTVSPost2010PropOp52
 70
     0
102
RTVSPost2010Prop53
 90
        2
102
RTVSPost2010PropOp53
 70
     1
102
RTVSPost2010Prop54
  1
strokes_ogs.tif
102
RTVSPost2010PropOp54
 70
     1
102
RTVSPost2010Prop55
280
     0
102
RTVSPost2010PropOp55
 70
     1
102
RTVSPost2010Prop56
140
1.0
102
RTVSPost2010PropOp56
 70
     1
102
RTVSPost2010Prop57
140
1.0
102
RTVSPost2010PropOp57
 70
     1
102
RTVSPropertyOp0
 70
     1
102
RTVSPropertyOp1
 70
     1
102
RTVSPropertyOp2
 70
     1
102
RTVSPropertyOp3
 70
     1
102
RTVSPropertyOp4
 70
     1
102
RTVSPropertyOp5
 70
     1
102
RTVSPropertyOp6
 70
     1
102
RTVSPropertyOp7
 70
     1
102
RTVSPropertyOp8
 70
     1
102
RTVSPropertyOp9
 70
     1
102
RTVSPropertyOp10
 70
     1
102
RTVSPropertyOp11
 70
     1
102
RTVSPropertyOp12
 70
     1
102
RTVSPropertyOp13
 70
     1
102
RTVSPropertyOp14
 70
     1
102
RTVSPropertyOp15
 70
     1
102
RTVSPropertyOp16
 70
     1
102
RTVSPropertyOp17
 70
     1
102
RTVSPropertyOp18
 70
     1
102
RTVSPropertyOp19
 70
     1
102
RTVSPropertyOp20
 70
     1
102
RTVSPropertyOp21
 70
     1
102
RTVSPropertyOp22
 70
     1
102
RTVSPropertyOp23
 70
     1
102
RTVSPropertyOp24
 70
     1
102
RTVSPropertyOp25
 70
     1
102
RTVSPropertyOp26
 70
     1
102
RTVSPropertyOp27
 70
     1
102
RTVSPropertyOp28
 70
     1
102
RTVSPropertyOp29
 70
     1
102
RTVSPropertyOp30
 70
     1
102
RTVSPropertyOp31
 70
     1
102
RTVSPropertyOp32
 70
     1
102
RTVSPropertyOp33
 70
     1
102
RTVSPropertyOp34
 70
     1
102
RTVSPropertyOp35
 70
     1
102
RTVSPropertyOp36
 70
     1
102
RTVSPropertyOp37
 70
     1
102
RTVSPropertyOp38
 70
     1
102
RTVSPropertyOp39
 70
     1
102
RTVSPropertyOp40
 70
     1
102
RTVSPropertyOp41
 70
     1
102
RTVSPropertyOp42
 70
     1
102
RTVSPropertyOp43
 70
     1
102
RTVSPropertyOp44
 70
     1
102
RTVSPropertyOp45
 70
     1
102
RTVSPropertyOp46
 70
     1
102
RTVSPropertyOp47
 70
     1
102
RTVSPropertyOp48
 70
     1
102
RTVSPropertyOp49
 70
     1
102
RTVSPropertyOp50
 70
     1
102
RTVSPropertyOp51
 70
     0
102
RTVSPropertyOp52
 70
     0
102
RTVSPropertyOp53
 70
     1
102
RTVSPropertyOp54
 70
     1
102
RTVSPropertyOp55
 70
     1
102
RTVSPropertyOp56
 70
     1
102
RTVSPropertyOp57
 70
     1
102
RTVSPropertyOp58
 70
     1
102
RTVSPropertyOp59
 70
     1
102
RTVSPropertyOp60
 70
     1
102
RTVSPropertyOp61
 70
     1
102
RTVSPropertyOp62
 70
     1
  0
XRECORD
  5
EB7
102
{ACAD_REACTORS
330
EB6
102
}
330
EB6
100
AcDbXrecord
280
     1
102
RTVSPost2010Prop28
280
     0
102
RTVSPost2010PropOp28
 70
     1
102
RTVSPost2010Prop29
280
     1
102
RTVSPost2010PropOp29
 70
     1
102
RTVSPost2010Prop30
280
     1
102
RTVSPost2010PropOp30
 70
     1
102
RTVSPost2010Prop31
280
     0
102
RTVSPost2010PropOp31
 70
     1
102
RTVSPost2010Prop32
280
     0
102
RTVSPost2010PropOp32
 70
     1
102
RTVSPost2010Prop33
280
     0
102
RTVSPost2010PropOp33
 70
     1
102
RTVSPost2010Prop34
280
     0
102
RTVSPost2010PropOp34
 70
     1
102
RTVSPost2010Prop35
280
     0
102
RTVSPost2010PropOp35
 70
     1
102
RTVSPost2010Prop36
280
     0
102
RTVSPost2010PropOp36
 70
     1
102
RTVSPost2010Prop37
 90
       50
102
RTVSPost2010PropOp37
 70
     1
102
RTVSPost2010Prop38
140
0.0
102
RTVSPost2010PropOp38
 70
     1
102
RTVSPost2010Prop39
140
1.0
102
RTVSPost2010PropOp39
 70
     1
102
RTVSPost2010Prop40
 90
        0
102
RTVSPost2010PropOp40
 70
     1
102
RTVSPost2010Prop41ColorIndex
 90
       18
102
RTVSPost2010Prop41ColorRGB
 90
        0
102
RTVSPost2010PropOp41
 70
     1
102
RTVSPost2010Prop42
 90
       50
102
RTVSPost2010PropOp42
 70
     1
102
RTVSPost2010Prop43
 90
        3
102
RTVSPost2010PropOp43
 70
     1
102
RTVSPost2010Prop44ColorIndex
 90
        5
102
RTVSPost2010Prop44ColorRGB
 90
      255
102
RTVSPost2010PropOp44
 70
     1
102
RTVSPost2010Prop45
280
     0
102
RTVSPost2010PropOp45
 70
     1
102
RTVSPost2010Prop46
 90
       50
102
RTVSPost2010PropOp46
 70
     1
102
RTVSPost2010Prop47
 90
       50
102
RTVSPost2010PropOp47
 70
     1
102
RTVSPost2010Prop48
 90
       50
102
RTVSPost2010PropOp48
 70
     1
102
RTVSPost2010Prop49
280
     0
102
RTVSPost2010PropOp49
 70
     1
102
RTVSPost2010Prop50
 90
       50
102
RTVSPost2010PropOp50
 70
     1
102
RTVSPost2010Prop51ColorIndex
 90
      256
102
RTVSPost2010Prop51ColorRGB
 90
-16777216
102
RTVSPost2010PropOp51
 70
     0
102
RTVSPost2010Prop52
140
1.0
102
RTVSPost2010PropOp52
 70
     0
102
RTVSPost2010Prop53
 90
        2
102
RTVSPost2010PropOp53
 70
     1
102
RTVSPost2010Prop54
  1
strokes_ogs.tif
102
RTVSPost2010PropOp54
 70
     1
102
RTVSPost2010Prop55
280
     0
102
RTVSPost2010PropOp55
 70
     1
102
RTVSPost2010Prop56
140
1.0
102
RTVSPost2010PropOp56
 70
     1
102
RTVSPost2010Prop57
140
1.0
102
RTVSPost2010PropOp57
 70
     1
102
RTVSPropertyOp0
 70
     1
102
RTVSPropertyOp1
 70
     1
102
RTVSPropertyOp2
 70
     1
102
RTVSPropertyOp3
 70
     1
102
RTVSPropertyOp4
 70
     1
102
RTVSPropertyOp5
 70
     1
102
RTVSPropertyOp6
 70
     1
102
RTVSPropertyOp7
 70
     1
102
RTVSPropertyOp8
 70
     1
102
RTVSPropertyOp9
 70
     1
102
RTVSPropertyOp10
 70
     1
102
RTVSPropertyOp11
 70
     1
102
RTVSPropertyOp12
 70
     1
102
RTVSPropertyOp13
 70
     1
102
RTVSPropertyOp14
 70
     1
102
RTVSPropertyOp15
 70
     1
102
RTVSPropertyOp16
 70
     1
102
RTVSPropertyOp17
 70
     1
102
RTVSPropertyOp18
 70
     1
102
RTVSPropertyOp19
 70
     1
102
RTVSPropertyOp20
 70
     1
102
RTVSPropertyOp21
 70
     1
102
RTVSPropertyOp22
 70
     1
102
RTVSPropertyOp23
 70
     1
102
RTVSPropertyOp24
 70
     1
102
RTVSPropertyOp25
 70
     1
102
RTVSPropertyOp26
 70
     1
102
RTVSPropertyOp27
 70
     1
102
RTVSPropertyOp28
 70
     1
102
RTVSPropertyOp29
 70
     1
102
RTVSPropertyOp30
 70
     1
102
RTVSPropertyOp31
 70
     1
102
RTVSPropertyOp32
 70
     1
102
RTVSPropertyOp33
 70
     1
102
RTVSPropertyOp34
 70
     1
102
RTVSPropertyOp35
 70
     1
102
RTVSPropertyOp36
 70
     1
102
RTVSPropertyOp37
 70
     1
102
RTVSPropertyOp38
 70
     1
102
RTVSPropertyOp39
 70
     1
102
RTVSPropertyOp40
 70
     1
102
RTVSPropertyOp41
 70
     1
102
RTVSPropertyOp42
 70
     1
102
RTVSPropertyOp43
 70
     1
102
RTVSPropertyOp44
 70
     1
102
RTVSPropertyOp45
 70
     1
102
RTVSPropertyOp46
 70
     1
102
RTVSPropertyOp47
 70
     1
102
RTVSPropertyOp48
 70
     1
102
RTVSPropertyOp49
 70
     1
102
RTVSPropertyOp50
 70
     1
102
RTVSPropertyOp51
 70
     0
102
RTVSPropertyOp52
 70
     0
102
RTVSPropertyOp53
 70
     1
102
RTVSPropertyOp54
 70
     1
102
RTVSPropertyOp55
 70
     1
102
RTVSPropertyOp56
 70
     1
102
RTVSPropertyOp57
 70
     1
102
RTVSPropertyOp58
 70
     1
102
RTVSPropertyOp59
 70
     1
102
RTVSPropertyOp60
 70
     1
102
RTVSPropertyOp61
 70
     1
102
RTVSPropertyOp62
 70
     1
  0
XRECORD
  5
EB9
102
{ACAD_REACTORS
330
EB8
102
}
330
EB8
100
AcDbXrecord
280
     1
102
RTVSPost2010Prop28
280
     0
102
RTVSPost2010PropOp28
 70
     1
102
RTVSPost2010Prop29
280
     1
102
RTVSPost2010PropOp29
 70
     1
102
RTVSPost2010Prop30
280
     1
102
RTVSPost2010PropOp30
 70
     1
102
RTVSPost2010Prop31
280
     0
102
RTVSPost2010PropOp31
 70
     1
102
RTVSPost2010Prop32
280
     0
102
RTVSPost2010PropOp32
 70
     1
102
RTVSPost2010Prop33
280
     0
102
RTVSPost2010PropOp33
 70
     1
102
RTVSPost2010Prop34
280
     0
102
RTVSPost2010PropOp34
 70
     1
102
RTVSPost2010Prop35
280
     0
102
RTVSPost2010PropOp35
 70
     1
102
RTVSPost2010Prop36
280
     0
102
RTVSPost2010PropOp36
 70
     1
102
RTVSPost2010Prop37
 90
       50
102
RTVSPost2010PropOp37
 70
     1
102
RTVSPost2010Prop38
140
0.0
102
RTVSPost2010PropOp38
 70
     1
102
RTVSPost2010Prop39
140
1.0
102
RTVSPost2010PropOp39
 70
     1
102
RTVSPost2010Prop40
 90
        0
102
RTVSPost2010PropOp40
 70
     1
102
RTVSPost2010Prop41ColorIndex
 90
       18
102
RTVSPost2010Prop41ColorRGB
 90
        0
102
RTVSPost2010PropOp41
 70
     1
102
RTVSPost2010Prop42
 90
       50
102
RTVSPost2010PropOp42
 70
     1
102
RTVSPost2010Prop43
 90
        3
102
RTVSPost2010PropOp43
 70
     1
102
RTVSPost2010Prop44ColorIndex
 90
        5
102
RTVSPost2010Prop44ColorRGB
 90
      255
102
RTVSPost2010PropOp44
 70
     1
102
RTVSPost2010Prop45
280
     0
102
RTVSPost2010PropOp45
 70
     1
102
RTVSPost2010Prop46
 90
       50
102
RTVSPost2010PropOp46
 70
     1
102
RTVSPost2010Prop47
 90
       50
102
RTVSPost2010PropOp47
 70
     1
102
RTVSPost2010Prop48
 90
       50
102
RTVSPost2010PropOp48
 70
     1
102
RTVSPost2010Prop49
280
     0
102
RTVSPost2010PropOp49
 70
     1
102
RTVSPost2010Prop50
 90
       50
102
RTVSPost2010PropOp50
 70
     1
102
RTVSPost2010Prop51ColorIndex
 90
      256
102
RTVSPost2010Prop51ColorRGB
 90
-16777216
102
RTVSPost2010PropOp51
 70
     0
102
RTVSPost2010Prop52
140
1.0
102
RTVSPost2010PropOp52
 70
     0
102
RTVSPost2010Prop53
 90
        2
102
RTVSPost2010PropOp53
 70
     1
102
RTVSPost2010Prop54
  1
strokes_ogs.tif
102
RTVSPost2010PropOp54
 70
     1
102
RTVSPost2010Prop55
280
     0
102
RTVSPost2010PropOp55
 70
     1
102
RTVSPost2010Prop56
140
1.0
102
RTVSPost2010PropOp56
 70
     1
102
RTVSPost2010Prop57
140
1.0
102
RTVSPost2010PropOp57
 70
     1
102
RTVSPropertyOp0
 70
     1
102
RTVSPropertyOp1
 70
     1
102
RTVSPropertyOp2
 70
     1
102
RTVSPropertyOp3
 70
     1
102
RTVSPropertyOp4
 70
     1
102
RTVSPropertyOp5
 70
     1
102
RTVSPropertyOp6
 70
     1
102
RTVSPropertyOp7
 70
     1
102
RTVSPropertyOp8
 70
     1
102
RTVSPropertyOp9
 70
     1
102
RTVSPropertyOp10
 70
     1
102
RTVSPropertyOp11
 70
     1
102
RTVSPropertyOp12
 70
     1
102
RTVSPropertyOp13
 70
     1
102
RTVSPropertyOp14
 70
     1
102
RTVSPropertyOp15
 70
     1
102
RTVSPropertyOp16
 70
     1
102
RTVSPropertyOp17
 70
     1
102
RTVSPropertyOp18
 70
     1
102
RTVSPropertyOp19
 70
     1
102
RTVSPropertyOp20
 70
     1
102
RTVSPropertyOp21
 70
     1
102
RTVSPropertyOp22
 70
     1
102
RTVSPropertyOp23
 70
     1
102
RTVSPropertyOp24
 70
     1
102
RTVSPropertyOp25
 70
     1
102
RTVSPropertyOp26
 70
     1
102
RTVSPropertyOp27
 70
     1
102
RTVSPropertyOp28
 70
     1
102
RTVSPropertyOp29
 70
     1
102
RTVSPropertyOp30
 70
     1
102
RTVSPropertyOp31
 70
     1
102
RTVSPropertyOp32
 70
     1
102
RTVSPropertyOp33
 70
     1
102
RTVSPropertyOp34
 70
     1
102
RTVSPropertyOp35
 70
     1
102
RTVSPropertyOp36
 70
     1
102
RTVSPropertyOp37
 70
     1
102
RTVSPropertyOp38
 70
     1
102
RTVSPropertyOp39
 70
     1
102
RTVSPropertyOp40
 70
     1
102
RTVSPropertyOp41
 70
     1
102
RTVSPropertyOp42
 70
     1
102
RTVSPropertyOp43
 70
     1
102
RTVSPropertyOp44
 70
     1
102
RTVSPropertyOp45
 70
     1
102
RTVSPropertyOp46
 70
     1
102
RTVSPropertyOp47
 70
     1
102
RTVSPropertyOp48
 70
     1
102
RTVSPropertyOp49
 70
     1
102
RTVSPropertyOp50
 70
     1
102
RTVSPropertyOp51
 70
     0
102
RTVSPropertyOp52
 70
     0
102
RTVSPropertyOp53
 70
     1
102
RTVSPropertyOp54
 70
     1
102
RTVSPropertyOp55
 70
     1
102
RTVSPropertyOp56
 70
     1
102
RTVSPropertyOp57
 70
     1
102
RTVSPropertyOp58
 70
     1
102
RTVSPropertyOp59
 70
     1
102
RTVSPropertyOp60
 70
     1
102
RTVSPropertyOp61
 70
     1
102
RTVSPropertyOp62
 70
     1
  0
XRECORD
  5
EBB
102
{ACAD_REACTORS
330
EBA
102
}
330
EBA
100
AcDbXrecord
280
     1
102
RTVSPost2010Prop28
280
     0
102
RTVSPost2010PropOp28
 70
     1
102
RTVSPost2010Prop29
280
     1
102
RTVSPost2010PropOp29
 70
     1
102
RTVSPost2010Prop30
280
     1
102
RTVSPost2010PropOp30
 70
     1
102
RTVSPost2010Prop31
280
     0
102
RTVSPost2010PropOp31
 70
     1
102
RTVSPost2010Prop32
280
     0
102
RTVSPost2010PropOp32
 70
     1
102
RTVSPost2010Prop33
280
     0
102
RTVSPost2010PropOp33
 70
     1
102
RTVSPost2010Prop34
280
     0
102
RTVSPost2010PropOp34
 70
     1
102
RTVSPost2010Prop35
280
     0
102
RTVSPost2010PropOp35
 70
     1
102
RTVSPost2010Prop36
280
     0
102
RTVSPost2010PropOp36
 70
     1
102
RTVSPost2010Prop37
 90
       50
102
RTVSPost2010PropOp37
 70
     1
102
RTVSPost2010Prop38
140
0.0
102
RTVSPost2010PropOp38
 70
     1
102
RTVSPost2010Prop39
140
1.0
102
RTVSPost2010PropOp39
 70
     1
102
RTVSPost2010Prop40
 90
        0
102
RTVSPost2010PropOp40
 70
     1
102
RTVSPost2010Prop41ColorIndex
 90
       18
102
RTVSPost2010Prop41ColorRGB
 90
        0
102
RTVSPost2010PropOp41
 70
     1
102
RTVSPost2010Prop42
 90
       50
102
RTVSPost2010PropOp42
 70
     1
102
RTVSPost2010Prop43
 90
        3
102
RTVSPost2010PropOp43
 70
     1
102
RTVSPost2010Prop44ColorIndex
 90
        5
102
RTVSPost2010Prop44ColorRGB
 90
      255
102
RTVSPost2010PropOp44
 70
     1
102
RTVSPost2010Prop45
280
     0
102
RTVSPost2010PropOp45
 70
     1
102
RTVSPost2010Prop46
 90
       50
102
RTVSPost2010PropOp46
 70
     1
102
RTVSPost2010Prop47
 90
       50
102
RTVSPost2010PropOp47
 70
     1
102
RTVSPost2010Prop48
 90
       50
102
RTVSPost2010PropOp48
 70
     1
102
RTVSPost2010Prop49
280
     0
102
RTVSPost2010PropOp49
 70
     1
102
RTVSPost2010Prop50
 90
       50
102
RTVSPost2010PropOp50
 70
     1
102
RTVSPost2010Prop51ColorIndex
 90
      256
102
RTVSPost2010Prop51ColorRGB
 90
-16777216
102
RTVSPost2010PropOp51
 70
     0
102
RTVSPost2010Prop52
140
1.0
102
RTVSPost2010PropOp52
 70
     0
102
RTVSPost2010Prop53
 90
        2
102
RTVSPost2010PropOp53
 70
     1
102
RTVSPost2010Prop54
  1
strokes_ogs.tif
102
RTVSPost2010PropOp54
 70
     1
102
RTVSPost2010Prop55
280
     0
102
RTVSPost2010PropOp55
 70
     1
102
RTVSPost2010Prop56
140
1.0
102
RTVSPost2010PropOp56
 70
     1
102
RTVSPost2010Prop57
140
1.0
102
RTVSPost2010PropOp57
 70
     1
102
RTVSPropertyOp0
 70
     1
102
RTVSPropertyOp1
 70
     1
102
RTVSPropertyOp2
 70
     1
102
RTVSPropertyOp3
 70
     1
102
RTVSPropertyOp4
 70
     1
102
RTVSPropertyOp5
 70
     1
102
RTVSPropertyOp6
 70
     1
102
RTVSPropertyOp7
 70
     1
102
RTVSPropertyOp8
 70
     1
102
RTVSPropertyOp9
 70
     1
102
RTVSPropertyOp10
 70
     1
102
RTVSPropertyOp11
 70
     1
102
RTVSPropertyOp12
 70
     1
102
RTVSPropertyOp13
 70
     1
102
RTVSPropertyOp14
 70
     1
102
RTVSPropertyOp15
 70
     1
102
RTVSPropertyOp16
 70
     1
102
RTVSPropertyOp17
 70
     1
102
RTVSPropertyOp18
 70
     1
102
RTVSPropertyOp19
 70
     1
102
RTVSPropertyOp20
 70
     1
102
RTVSPropertyOp21
 70
     1
102
RTVSPropertyOp22
 70
     1
102
RTVSPropertyOp23
 70
     1
102
RTVSPropertyOp24
 70
     1
102
RTVSPropertyOp25
 70
     1
102
RTVSPropertyOp26
 70
     1
102
RTVSPropertyOp27
 70
     1
102
RTVSPropertyOp28
 70
     1
102
RTVSPropertyOp29
 70
     1
102
RTVSPropertyOp30
 70
     1
102
RTVSPropertyOp31
 70
     1
102
RTVSPropertyOp32
 70
     1
102
RTVSPropertyOp33
 70
     1
102
RTVSPropertyOp34
 70
     1
102
RTVSPropertyOp35
 70
     1
102
RTVSPropertyOp36
 70
     1
102
RTVSPropertyOp37
 70
     1
102
RTVSPropertyOp38
 70
     1
102
RTVSPropertyOp39
 70
     1
102
RTVSPropertyOp40
 70
     1
102
RTVSPropertyOp41
 70
     1
102
RTVSPropertyOp42
 70
     1
102
RTVSPropertyOp43
 70
     1
102
RTVSPropertyOp44
 70
     1
102
RTVSPropertyOp45
 70
     1
102
RTVSPropertyOp46
 70
     1
102
RTVSPropertyOp47
 70
     1
102
RTVSPropertyOp48
 70
     1
102
RTVSPropertyOp49
 70
     1
102
RTVSPropertyOp50
 70
     1
102
RTVSPropertyOp51
 70
     0
102
RTVSPropertyOp52
 70
     0
102
RTVSPropertyOp53
 70
     1
102
RTVSPropertyOp54
 70
     1
102
RTVSPropertyOp55
 70
     1
102
RTVSPropertyOp56
 70
     1
102
RTVSPropertyOp57
 70
     1
102
RTVSPropertyOp58
 70
     1
102
RTVSPropertyOp59
 70
     1
102
RTVSPropertyOp60
 70
     1
102
RTVSPropertyOp61
 70
     1
102
RTVSPropertyOp62
 70
     1
  0
XRECORD
  5
EC3
102
{ACAD_REACTORS
330
EC2
102
}
330
EC2
100
AcDbXrecord
280
     1
102
RTVSPost2010Prop28
280
     0
102
RTVSPost2010PropOp28
 70
     1
102
RTVSPost2010Prop29
280
     1
102
RTVSPost2010PropOp29
 70
     1
102
RTVSPost2010Prop30
280
     1
102
RTVSPost2010PropOp30
 70
     1
102
RTVSPost2010Prop31
280
     0
102
RTVSPost2010PropOp31
 70
     1
102
RTVSPost2010Prop32
280
     0
102
RTVSPost2010PropOp32
 70
     1
102
RTVSPost2010Prop33
280
     0
102
RTVSPost2010PropOp33
 70
     1
102
RTVSPost2010Prop34
280
     0
102
RTVSPost2010PropOp34
 70
     1
102
RTVSPost2010Prop35
280
     0
102
RTVSPost2010PropOp35
 70
     1
102
RTVSPost2010Prop36
280
     0
102
RTVSPost2010PropOp36
 70
     1
102
RTVSPost2010Prop37
 90
       50
102
RTVSPost2010PropOp37
 70
     1
102
RTVSPost2010Prop38
140
0.0
102
RTVSPost2010PropOp38
 70
     1
102
RTVSPost2010Prop39
140
1.0
102
RTVSPost2010PropOp39
 70
     1
102
RTVSPost2010Prop40
 90
        0
102
RTVSPost2010PropOp40
 70
     1
102
RTVSPost2010Prop41ColorIndex
 90
       18
102
RTVSPost2010Prop41ColorRGB
 90
        0
102
RTVSPost2010PropOp41
 70
     1
102
RTVSPost2010Prop42
 90
       50
102
RTVSPost2010PropOp42
 70
     1
102
RTVSPost2010Prop43
 90
        3
102
RTVSPost2010PropOp43
 70
     1
102
RTVSPost2010Prop44ColorIndex
 90
        5
102
RTVSPost2010Prop44ColorRGB
 90
      255
102
RTVSPost2010PropOp44
 70
     1
102
RTVSPost2010Prop45
280
     0
102
RTVSPost2010PropOp45
 70
     1
102
RTVSPost2010Prop46
 90
       50
102
RTVSPost2010PropOp46
 70
     1
102
RTVSPost2010Prop47
 90
       50
102
RTVSPost2010PropOp47
 70
     1
102
RTVSPost2010Prop48
 90
       50
102
RTVSPost2010PropOp48
 70
     1
102
RTVSPost2010Prop49
280
     0
102
RTVSPost2010PropOp49
 70
     1
102
RTVSPost2010Prop50
 90
       50
102
RTVSPost2010PropOp50
 70
     1
102
RTVSPost2010Prop51ColorIndex
 90
      256
102
RTVSPost2010Prop51ColorRGB
 90
-16777216
102
RTVSPost2010PropOp51
 70
     0
102
RTVSPost2010Prop52
140
1.0
102
RTVSPost2010PropOp52
 70
     0
102
RTVSPost2010Prop53
 90
        2
102
RTVSPost2010PropOp53
 70
     1
102
RTVSPost2010Prop54
  1
strokes_ogs.tif
102
RTVSPost2010PropOp54
 70
     1
102
RTVSPost2010Prop55
280
     0
102
RTVSPost2010PropOp55
 70
     1
102
RTVSPost2010Prop56
140
1.0
102
RTVSPost2010PropOp56
 70
     1
102
RTVSPost2010Prop57
140
1.0
102
RTVSPost2010PropOp57
 70
     1
102
RTVSPropertyOp0
 70
     1
102
RTVSPropertyOp1
 70
     1
102
RTVSPropertyOp2
 70
     1
102
RTVSPropertyOp3
 70
     1
102
RTVSPropertyOp4
 70
     1
102
RTVSPropertyOp5
 70
     1
102
RTVSPropertyOp6
 70
     1
102
RTVSPropertyOp7
 70
     1
102
RTVSPropertyOp8
 70
     1
102
RTVSPropertyOp9
 70
     1
102
RTVSPropertyOp10
 70
     1
102
RTVSPropertyOp11
 70
     1
102
RTVSPropertyOp12
 70
     1
102
RTVSPropertyOp13
 70
     1
102
RTVSPropertyOp14
 70
     1
102
RTVSPropertyOp15
 70
     1
102
RTVSPropertyOp16
 70
     1
102
RTVSPropertyOp17
 70
     1
102
RTVSPropertyOp18
 70
     1
102
RTVSPropertyOp19
 70
     1
102
RTVSPropertyOp20
 70
     1
102
RTVSPropertyOp21
 70
     1
102
RTVSPropertyOp22
 70
     1
102
RTVSPropertyOp23
 70
     1
102
RTVSPropertyOp24
 70
     1
102
RTVSPropertyOp25
 70
     1
102
RTVSPropertyOp26
 70
     1
102
RTVSPropertyOp27
 70
     1
102
RTVSPropertyOp28
 70
     1
102
RTVSPropertyOp29
 70
     1
102
RTVSPropertyOp30
 70
     1
102
RTVSPropertyOp31
 70
     1
102
RTVSPropertyOp32
 70
     1
102
RTVSPropertyOp33
 70
     1
102
RTVSPropertyOp34
 70
     1
102
RTVSPropertyOp35
 70
     1
102
RTVSPropertyOp36
 70
     1
102
RTVSPropertyOp37
 70
     1
102
RTVSPropertyOp38
 70
     1
102
RTVSPropertyOp39
 70
     1
102
RTVSPropertyOp40
 70
     1
102
RTVSPropertyOp41
 70
     1
102
RTVSPropertyOp42
 70
     1
102
RTVSPropertyOp43
 70
     1
102
RTVSPropertyOp44
 70
     1
102
RTVSPropertyOp45
 70
     1
102
RTVSPropertyOp46
 70
     1
102
RTVSPropertyOp47
 70
     1
102
RTVSPropertyOp48
 70
     1
102
RTVSPropertyOp49
 70
     1
102
RTVSPropertyOp50
 70
     1
102
RTVSPropertyOp51
 70
     0
102
RTVSPropertyOp52
 70
     0
102
RTVSPropertyOp53
 70
     1
102
RTVSPropertyOp54
 70
     1
102
RTVSPropertyOp55
 70
     1
102
RTVSPropertyOp56
 70
     1
102
RTVSPropertyOp57
 70
     1
102
RTVSPropertyOp58
 70
     1
102
RTVSPropertyOp59
 70
     1
102
RTVSPropertyOp60
 70
     1
102
RTVSPropertyOp61
 70
     1
102
RTVSPropertyOp62
 70
     1
  0
XRECORD
  5
EDF
102
{ACAD_REACTORS
330
EDE
102
}
330
EDE
100
AcDbXrecord
280
     1
102
RTVSPost2010Prop28
280
     0
102
RTVSPost2010PropOp28
 70
     0
102
RTVSPost2010Prop29
280
     1
102
RTVSPost2010PropOp29
 70
     0
102
RTVSPost2010Prop30
280
     1
102
RTVSPost2010PropOp30
 70
     0
102
RTVSPost2010Prop31
280
     0
102
RTVSPost2010PropOp31
 70
     0
102
RTVSPost2010Prop32
280
     0
102
RTVSPost2010PropOp32
 70
     0
102
RTVSPost2010Prop33
280
     0
102
RTVSPost2010PropOp33
 70
     0
102
RTVSPost2010Prop34
280
     0
102
RTVSPost2010PropOp34
 70
     0
102
RTVSPost2010Prop35
280
     0
102
RTVSPost2010PropOp35
 70
     0
102
RTVSPost2010Prop36
280
     0
102
RTVSPost2010PropOp36
 70
     0
102
RTVSPost2010Prop37
 90
       50
102
RTVSPost2010PropOp37
 70
     0
102
RTVSPost2010Prop38
140
0.0
102
RTVSPost2010PropOp38
 70
     0
102
RTVSPost2010Prop39
140
1.0
102
RTVSPost2010PropOp39
 70
     0
102
RTVSPost2010Prop40
 90
        0
102
RTVSPost2010PropOp40
 70
     0
102
RTVSPost2010Prop41ColorIndex
 90
       18
102
RTVSPost2010Prop41ColorRGB
 90
        0
102
RTVSPost2010PropOp41
 70
     0
102
RTVSPost2010Prop42
 90
       50
102
RTVSPost2010PropOp42
 70
     0
102
RTVSPost2010Prop43
 90
        3
102
RTVSPost2010PropOp43
 70
     0
102
RTVSPost2010Prop44ColorIndex
 90
        5
102
RTVSPost2010Prop44ColorRGB
 90
      255
102
RTVSPost2010PropOp44
 70
     0
102
RTVSPost2010Prop45
280
     0
102
RTVSPost2010PropOp45
 70
     0
102
RTVSPost2010Prop46
 90
       50
102
RTVSPost2010PropOp46
 70
     0
102
RTVSPost2010Prop47
 90
       50
102
RTVSPost2010PropOp47
 70
     0
102
RTVSPost2010Prop48
 90
       50
102
RTVSPost2010PropOp48
 70
     0
102
RTVSPost2010Prop49
280
     0
102
RTVSPost2010PropOp49
 70
     0
102
RTVSPost2010Prop50
 90
       50
102
RTVSPost2010PropOp50
 70
     0
102
RTVSPost2010Prop51ColorIndex
 90
      256
102
RTVSPost2010Prop51ColorRGB
 90
-16777216
102
RTVSPost2010PropOp51
 70
     0
102
RTVSPost2010Prop52
140
1.0
102
RTVSPost2010PropOp52
 70
     0
102
RTVSPost2010Prop53
 90
        2
102
RTVSPost2010PropOp53
 70
     0
102
RTVSPost2010Prop54
  1
strokes_ogs.tif
102
RTVSPost2010PropOp54
 70
     0
102
RTVSPost2010Prop55
280
     0
102
RTVSPost2010PropOp55
 70
     0
102
RTVSPost2010Prop56
140
1.0
102
RTVSPost2010PropOp56
 70
     0
102
RTVSPost2010Prop57
140
1.0
102
RTVSPost2010PropOp57
 70
     0
102
RTVSPropertyOp0
 70
     0
102
RTVSPropertyOp1
 70
     0
102
RTVSPropertyOp2
 70
     0
102
RTVSPropertyOp3
 70
     0
102
RTVSPropertyOp4
 70
     0
102
RTVSPropertyOp5
 70
     0
102
RTVSPropertyOp6
 70
     0
102
RTVSPropertyOp7
 70
     0
102
RTVSPropertyOp8
 70
     0
102
RTVSPropertyOp9
 70
     0
102
RTVSPropertyOp10
 70
     0
102
RTVSPropertyOp11
 70
     0
102
RTVSPropertyOp12
 70
     0
102
RTVSPropertyOp13
 70
     0
102
RTVSPropertyOp14
 70
     2
102
RTVSPropertyOp15
 70
     0
102
RTVSPropertyOp16
 70
     0
102
RTVSPropertyOp17
 70
     0
102
RTVSPropertyOp18
 70
     0
102
RTVSPropertyOp19
 70
     0
102
RTVSPropertyOp20
 70
     0
102
RTVSPropertyOp21
 70
     0
102
RTVSPropertyOp22
 70
     0
102
RTVSPropertyOp23
 70
     0
102
RTVSPropertyOp24
 70
     0
102
RTVSPropertyOp25
 70
     0
102
RTVSPropertyOp26
 70
     0
102
RTVSPropertyOp27
 70
     0
102
RTVSPropertyOp28
 70
     0
102
RTVSPropertyOp29
 70
     0
102
RTVSPropertyOp30
 70
     0
102
RTVSPropertyOp31
 70
     0
102
RTVSPropertyOp32
 70
     0
102
RTVSPropertyOp33
 70
     0
102
RTVSPropertyOp34
 70
     0
102
RTVSPropertyOp35
 70
     0
102
RTVSPropertyOp36
 70
     0
102
RTVSPropertyOp37
 70
     0
102
RTVSPropertyOp38
 70
     0
102
RTVSPropertyOp39
 70
     0
102
RTVSPropertyOp40
 70
     0
102
RTVSPropertyOp41
 70
     0
102
RTVSPropertyOp42
 70
     0
102
RTVSPropertyOp43
 70
     0
102
RTVSPropertyOp44
 70
     0
102
RTVSPropertyOp45
 70
     0
102
RTVSPropertyOp46
 70
     0
102
RTVSPropertyOp47
 70
     0
102
RTVSPropertyOp48
 70
     0
102
RTVSPropertyOp49
 70
     0
102
RTVSPropertyOp50
 70
     0
102
RTVSPropertyOp51
 70
     0
102
RTVSPropertyOp52
 70
     0
102
RTVSPropertyOp53
 70
     0
102
RTVSPropertyOp54
 70
     0
102
RTVSPropertyOp55
 70
     0
102
RTVSPropertyOp56
 70
     0
102
RTVSPropertyOp57
 70
     0
102
RTVSPropertyOp58
 70
     1
102
RTVSPropertyOp59
 70
     1
102
RTVSPropertyOp60
 70
     1
102
RTVSPropertyOp61
 70
     1
102
RTVSPropertyOp62
 70
     1
  0
XRECORD
  5
ECF
102
{ACAD_REACTORS
330
ECE
102
}
330
ECE
100
AcDbXrecord
280
     1
102
RTVSPost2010Prop28
280
     0
102
RTVSPost2010PropOp28
 70
     1
102
RTVSPost2010Prop29
280
     1
102
RTVSPost2010PropOp29
 70
     1
102
RTVSPost2010Prop30
280
     1
102
RTVSPost2010PropOp30
 70
     1
102
RTVSPost2010Prop31
280
     0
102
RTVSPost2010PropOp31
 70
     1
102
RTVSPost2010Prop32
280
     0
102
RTVSPost2010PropOp32
 70
     1
102
RTVSPost2010Prop33
280
     0
102
RTVSPost2010PropOp33
 70
     1
102
RTVSPost2010Prop34
280
     0
102
RTVSPost2010PropOp34
 70
     1
102
RTVSPost2010Prop35
280
     0
102
RTVSPost2010PropOp35
 70
     1
102
RTVSPost2010Prop36
280
     0
102
RTVSPost2010PropOp36
 70
     1
102
RTVSPost2010Prop37
 90
       50
102
RTVSPost2010PropOp37
 70
     1
102
RTVSPost2010Prop38
140
0.0
102
RTVSPost2010PropOp38
 70
     1
102
RTVSPost2010Prop39
140
1.0
102
RTVSPost2010PropOp39
 70
     1
102
RTVSPost2010Prop40
 90
        0
102
RTVSPost2010PropOp40
 70
     1
102
RTVSPost2010Prop41ColorIndex
 90
       18
102
RTVSPost2010Prop41ColorRGB
 90
        0
102
RTVSPost2010PropOp41
 70
     1
102
RTVSPost2010Prop42
 90
       50
102
RTVSPost2010PropOp42
 70
     1
102
RTVSPost2010Prop43
 90
        3
102
RTVSPost2010PropOp43
 70
     1
102
RTVSPost2010Prop44ColorIndex
 90
        5
102
RTVSPost2010Prop44ColorRGB
 90
      255
102
RTVSPost2010PropOp44
 70
     1
102
RTVSPost2010Prop45
280
     0
102
RTVSPost2010PropOp45
 70
     1
102
RTVSPost2010Prop46
 90
       50
102
RTVSPost2010PropOp46
 70
     1
102
RTVSPost2010Prop47
 90
       50
102
RTVSPost2010PropOp47
 70
     1
102
RTVSPost2010Prop48
 90
       50
102
RTVSPost2010PropOp48
 70
     1
102
RTVSPost2010Prop49
280
     0
102
RTVSPost2010PropOp49
 70
     1
102
RTVSPost2010Prop50
 90
       50
102
RTVSPost2010PropOp50
 70
     1
102
RTVSPost2010Prop51ColorIndex
 90
      256
102
RTVSPost2010Prop51ColorRGB
 90
-16777216
102
RTVSPost2010PropOp51
 70
     0
102
RTVSPost2010Prop52
140
1.0
102
RTVSPost2010PropOp52
 70
     0
102
RTVSPost2010Prop53
 90
        2
102
RTVSPost2010PropOp53
 70
     1
102
RTVSPost2010Prop54
  1
strokes_ogs.tif
102
RTVSPost2010PropOp54
 70
     1
102
RTVSPost2010Prop55
280
     0
102
RTVSPost2010PropOp55
 70
     1
102
RTVSPost2010Prop56
140
1.0
102
RTVSPost2010PropOp56
 70
     1
102
RTVSPost2010Prop57
140
1.0
102
RTVSPost2010PropOp57
 70
     1
102
RTVSPropertyOp0
 70
     1
102
RTVSPropertyOp1
 70
     1
102
RTVSPropertyOp2
 70
     1
102
RTVSPropertyOp3
 70
     1
102
RTVSPropertyOp4
 70
     1
102
RTVSPropertyOp5
 70
     1
102
RTVSPropertyOp6
 70
     1
102
RTVSPropertyOp7
 70
     1
102
RTVSPropertyOp8
 70
     1
102
RTVSPropertyOp9
 70
     1
102
RTVSPropertyOp10
 70
     1
102
RTVSPropertyOp11
 70
     1
102
RTVSPropertyOp12
 70
     1
102
RTVSPropertyOp13
 70
     1
102
RTVSPropertyOp14
 70
     1
102
RTVSPropertyOp15
 70
     1
102
RTVSPropertyOp16
 70
     1
102
RTVSPropertyOp17
 70
     1
102
RTVSPropertyOp18
 70
     1
102
RTVSPropertyOp19
 70
     1
102
RTVSPropertyOp20
 70
     1
102
RTVSPropertyOp21
 70
     1
102
RTVSPropertyOp22
 70
     1
102
RTVSPropertyOp23
 70
     1
102
RTVSPropertyOp24
 70
     1
102
RTVSPropertyOp25
 70
     1
102
RTVSPropertyOp26
 70
     1
102
RTVSPropertyOp27
 70
     1
102
RTVSPropertyOp28
 70
     1
102
RTVSPropertyOp29
 70
     1
102
RTVSPropertyOp30
 70
     1
102
RTVSPropertyOp31
 70
     1
102
RTVSPropertyOp32
 70
     1
102
RTVSPropertyOp33
 70
     1
102
RTVSPropertyOp34
 70
     1
102
RTVSPropertyOp35
 70
     1
102
RTVSPropertyOp36
 70
     1
102
RTVSPropertyOp37
 70
     1
102
RTVSPropertyOp38
 70
     1
102
RTVSPropertyOp39
 70
     1
102
RTVSPropertyOp40
 70
     1
102
RTVSPropertyOp41
 70
     1
102
RTVSPropertyOp42
 70
     1
102
RTVSPropertyOp43
 70
     1
102
RTVSPropertyOp44
 70
     1
102
RTVSPropertyOp45
 70
     1
102
RTVSPropertyOp46
 70
     1
102
RTVSPropertyOp47
 70
     1
102
RTVSPropertyOp48
 70
     1
102
RTVSPropertyOp49
 70
     1
102
RTVSPropertyOp50
 70
     1
102
RTVSPropertyOp51
 70
     0
102
RTVSPropertyOp52
 70
     0
102
RTVSPropertyOp53
 70
     1
102
RTVSPropertyOp54
 70
     1
102
RTVSPropertyOp55
 70
     1
102
RTVSPropertyOp56
 70
     1
102
RTVSPropertyOp57
 70
     1
102
RTVSPropertyOp58
 70
     1
102
RTVSPropertyOp59
 70
     1
102
RTVSPropertyOp60
 70
     1
102
RTVSPropertyOp61
 70
     1
102
RTVSPropertyOp62
 70
     1
  0
XRECORD
  5
EE1
102
{ACAD_REACTORS
330
EE0
102
}
330
EE0
100
AcDbXrecord
280
     1
102
RTVSPost2010Prop28
280
     0
102
RTVSPost2010PropOp28
 70
     0
102
RTVSPost2010Prop29
280
     1
102
RTVSPost2010PropOp29
 70
     0
102
RTVSPost2010Prop30
280
     1
102
RTVSPost2010PropOp30
 70
     0
102
RTVSPost2010Prop31
280
     0
102
RTVSPost2010PropOp31
 70
     0
102
RTVSPost2010Prop32
280
     0
102
RTVSPost2010PropOp32
 70
     0
102
RTVSPost2010Prop33
280
     0
102
RTVSPost2010PropOp33
 70
     0
102
RTVSPost2010Prop34
280
     0
102
RTVSPost2010PropOp34
 70
     0
102
RTVSPost2010Prop35
280
     0
102
RTVSPost2010PropOp35
 70
     0
102
RTVSPost2010Prop36
280
     0
102
RTVSPost2010PropOp36
 70
     0
102
RTVSPost2010Prop37
 90
       50
102
RTVSPost2010PropOp37
 70
     0
102
RTVSPost2010Prop38
140
0.0
102
RTVSPost2010PropOp38
 70
     0
102
RTVSPost2010Prop39
140
1.0
102
RTVSPost2010PropOp39
 70
     0
102
RTVSPost2010Prop40
 90
        0
102
RTVSPost2010PropOp40
 70
     0
102
RTVSPost2010Prop41ColorIndex
 90
       18
102
RTVSPost2010Prop41ColorRGB
 90
        0
102
RTVSPost2010PropOp41
 70
     0
102
RTVSPost2010Prop42
 90
       50
102
RTVSPost2010PropOp42
 70
     0
102
RTVSPost2010Prop43
 90
        3
102
RTVSPost2010PropOp43
 70
     0
102
RTVSPost2010Prop44ColorIndex
 90
        5
102
RTVSPost2010Prop44ColorRGB
 90
      255
102
RTVSPost2010PropOp44
 70
     0
102
RTVSPost2010Prop45
280
     0
102
RTVSPost2010PropOp45
 70
     0
102
RTVSPost2010Prop46
 90
       50
102
RTVSPost2010PropOp46
 70
     0
102
RTVSPost2010Prop47
 90
       50
102
RTVSPost2010PropOp47
 70
     0
102
RTVSPost2010Prop48
 90
       50
102
RTVSPost2010PropOp48
 70
     0
102
RTVSPost2010Prop49
280
     0
102
RTVSPost2010PropOp49
 70
     0
102
RTVSPost2010Prop50
 90
       50
102
RTVSPost2010PropOp50
 70
     0
102
RTVSPost2010Prop51ColorIndex
 90
      256
102
RTVSPost2010Prop51ColorRGB
 90
-16777216
102
RTVSPost2010PropOp51
 70
     0
102
RTVSPost2010Prop52
140
1.0
102
RTVSPost2010PropOp52
 70
     0
102
RTVSPost2010Prop53
 90
        2
102
RTVSPost2010PropOp53
 70
     0
102
RTVSPost2010Prop54
  1
strokes_ogs.tif
102
RTVSPost2010PropOp54
 70
     0
102
RTVSPost2010Prop55
280
     0
102
RTVSPost2010PropOp55
 70
     0
102
RTVSPost2010Prop56
140
1.0
102
RTVSPost2010PropOp56
 70
     0
102
RTVSPost2010Prop57
140
1.0
102
RTVSPost2010PropOp57
 70
     0
102
RTVSPropertyOp0
 70
     0
102
RTVSPropertyOp1
 70
     0
102
RTVSPropertyOp2
 70
     0
102
RTVSPropertyOp3
 70
     0
102
RTVSPropertyOp4
 70
     0
102
RTVSPropertyOp5
 70
     0
102
RTVSPropertyOp6
 70
     0
102
RTVSPropertyOp7
 70
     0
102
RTVSPropertyOp8
 70
     0
102
RTVSPropertyOp9
 70
     0
102
RTVSPropertyOp10
 70
     0
102
RTVSPropertyOp11
 70
     0
102
RTVSPropertyOp12
 70
     0
102
RTVSPropertyOp13
 70
     0
102
RTVSPropertyOp14
 70
     2
102
RTVSPropertyOp15
 70
     0
102
RTVSPropertyOp16
 70
     0
102
RTVSPropertyOp17
 70
     0
102
RTVSPropertyOp18
 70
     0
102
RTVSPropertyOp19
 70
     0
102
RTVSPropertyOp20
 70
     0
102
RTVSPropertyOp21
 70
     0
102
RTVSPropertyOp22
 70
     0
102
RTVSPropertyOp23
 70
     0
102
RTVSPropertyOp24
 70
     0
102
RTVSPropertyOp25
 70
     0
102
RTVSPropertyOp26
 70
     0
102
RTVSPropertyOp27
 70
     0
102
RTVSPropertyOp28
 70
     0
102
RTVSPropertyOp29
 70
     0
102
RTVSPropertyOp30
 70
     0
102
RTVSPropertyOp31
 70
     0
102
RTVSPropertyOp32
 70
     0
102
RTVSPropertyOp33
 70
     0
102
RTVSPropertyOp34
 70
     0
102
RTVSPropertyOp35
 70
     0
102
RTVSPropertyOp36
 70
     0
102
RTVSPropertyOp37
 70
     0
102
RTVSPropertyOp38
 70
     0
102
RTVSPropertyOp39
 70
     0
102
RTVSPropertyOp40
 70
     0
102
RTVSPropertyOp41
 70
     0
102
RTVSPropertyOp42
 70
     0
102
RTVSPropertyOp43
 70
     0
102
RTVSPropertyOp44
 70
     0
102
RTVSPropertyOp45
 70
     0
102
RTVSPropertyOp46
 70
     0
102
RTVSPropertyOp47
 70
     0
102
RTVSPropertyOp48
 70
     0
102
RTVSPropertyOp49
 70
     0
102
RTVSPropertyOp50
 70
     0
102
RTVSPropertyOp51
 70
     0
102
RTVSPropertyOp52
 70
     0
102
RTVSPropertyOp53
 70
     0
102
RTVSPropertyOp54
 70
     0
102
RTVSPropertyOp55
 70
     0
102
RTVSPropertyOp56
 70
     0
102
RTVSPropertyOp57
 70
     0
102
RTVSPropertyOp58
 70
     1
102
RTVSPropertyOp59
 70
     1
102
RTVSPropertyOp60
 70
     1
102
RTVSPropertyOp61
 70
     1
102
RTVSPropertyOp62
 70
     1
  0
XRECORD
  5
EC7
102
{ACAD_REACTORS
330
EC6
102
}
330
EC6
100
AcDbXrecord
280
     1
102
RTVSPost2010Prop28
280
     0
102
RTVSPost2010PropOp28
 70
     1
102
RTVSPost2010Prop29
280
     1
102
RTVSPost2010PropOp29
 70
     1
102
RTVSPost2010Prop30
280
     1
102
RTVSPost2010PropOp30
 70
     1
102
RTVSPost2010Prop31
280
     0
102
RTVSPost2010PropOp31
 70
     1
102
RTVSPost2010Prop32
280
     0
102
RTVSPost2010PropOp32
 70
     1
102
RTVSPost2010Prop33
280
     0
102
RTVSPost2010PropOp33
 70
     1
102
RTVSPost2010Prop34
280
     0
102
RTVSPost2010PropOp34
 70
     1
102
RTVSPost2010Prop35
280
     0
102
RTVSPost2010PropOp35
 70
     1
102
RTVSPost2010Prop36
280
     0
102
RTVSPost2010PropOp36
 70
     1
102
RTVSPost2010Prop37
 90
       50
102
RTVSPost2010PropOp37
 70
     1
102
RTVSPost2010Prop38
140
0.0
102
RTVSPost2010PropOp38
 70
     1
102
RTVSPost2010Prop39
140
1.0
102
RTVSPost2010PropOp39
 70
     1
102
RTVSPost2010Prop40
 90
        0
102
RTVSPost2010PropOp40
 70
     1
102
RTVSPost2010Prop41ColorIndex
 90
       18
102
RTVSPost2010Prop41ColorRGB
 90
        0
102
RTVSPost2010PropOp41
 70
     1
102
RTVSPost2010Prop42
 90
       50
102
RTVSPost2010PropOp42
 70
     1
102
RTVSPost2010Prop43
 90
        3
102
RTVSPost2010PropOp43
 70
     1
102
RTVSPost2010Prop44ColorIndex
 90
        5
102
RTVSPost2010Prop44ColorRGB
 90
      255
102
RTVSPost2010PropOp44
 70
     1
102
RTVSPost2010Prop45
280
     0
102
RTVSPost2010PropOp45
 70
     1
102
RTVSPost2010Prop46
 90
       50
102
RTVSPost2010PropOp46
 70
     1
102
RTVSPost2010Prop47
 90
       50
102
RTVSPost2010PropOp47
 70
     1
102
RTVSPost2010Prop48
 90
       50
102
RTVSPost2010PropOp48
 70
     1
102
RTVSPost2010Prop49
280
     0
102
RTVSPost2010PropOp49
 70
     1
102
RTVSPost2010Prop50
 90
       50
102
RTVSPost2010PropOp50
 70
     1
102
RTVSPost2010Prop51ColorIndex
 90
      256
102
RTVSPost2010Prop51ColorRGB
 90
-16777216
102
RTVSPost2010PropOp51
 70
     0
102
RTVSPost2010Prop52
140
1.0
102
RTVSPost2010PropOp52
 70
     0
102
RTVSPost2010Prop53
 90
        2
102
RTVSPost2010PropOp53
 70
     1
102
RTVSPost2010Prop54
  1
strokes_ogs.tif
102
RTVSPost2010PropOp54
 70
     1
102
RTVSPost2010Prop55
280
     0
102
RTVSPost2010PropOp55
 70
     1
102
RTVSPost2010Prop56
140
1.0
102
RTVSPost2010PropOp56
 70
     1
102
RTVSPost2010Prop57
140
1.0
102
RTVSPost2010PropOp57
 70
     1
102
RTVSPropertyOp0
 70
     1
102
RTVSPropertyOp1
 70
     1
102
RTVSPropertyOp2
 70
     1
102
RTVSPropertyOp3
 70
     1
102
RTVSPropertyOp4
 70
     1
102
RTVSPropertyOp5
 70
     1
102
RTVSPropertyOp6
 70
     1
102
RTVSPropertyOp7
 70
     1
102
RTVSPropertyOp8
 70
     1
102
RTVSPropertyOp9
 70
     1
102
RTVSPropertyOp10
 70
     1
102
RTVSPropertyOp11
 70
     1
102
RTVSPropertyOp12
 70
     1
102
RTVSPropertyOp13
 70
     1
102
RTVSPropertyOp14
 70
     1
102
RTVSPropertyOp15
 70
     1
102
RTVSPropertyOp16
 70
     1
102
RTVSPropertyOp17
 70
     1
102
RTVSPropertyOp18
 70
     1
102
RTVSPropertyOp19
 70
     1
102
RTVSPropertyOp20
 70
     1
102
RTVSPropertyOp21
 70
     1
102
RTVSPropertyOp22
 70
     1
102
RTVSPropertyOp23
 70
     1
102
RTVSPropertyOp24
 70
     1
102
RTVSPropertyOp25
 70
     1
102
RTVSPropertyOp26
 70
     1
102
RTVSPropertyOp27
 70
     1
102
RTVSPropertyOp28
 70
     1
102
RTVSPropertyOp29
 70
     1
102
RTVSPropertyOp30
 70
     1
102
RTVSPropertyOp31
 70
     1
102
RTVSPropertyOp32
 70
     1
102
RTVSPropertyOp33
 70
     1
102
RTVSPropertyOp34
 70
     1
102
RTVSPropertyOp35
 70
     1
102
RTVSPropertyOp36
 70
     1
102
RTVSPropertyOp37
 70
     1
102
RTVSPropertyOp38
 70
     1
102
RTVSPropertyOp39
 70
     1
102
RTVSPropertyOp40
 70
     1
102
RTVSPropertyOp41
 70
     1
102
RTVSPropertyOp42
 70
     1
102
RTVSPropertyOp43
 70
     1
102
RTVSPropertyOp44
 70
     1
102
RTVSPropertyOp45
 70
     1
102
RTVSPropertyOp46
 70
     1
102
RTVSPropertyOp47
 70
     1
102
RTVSPropertyOp48
 70
     1
102
RTVSPropertyOp49
 70
     1
102
RTVSPropertyOp50
 70
     1
102
RTVSPropertyOp51
 70
     0
102
RTVSPropertyOp52
 70
     0
102
RTVSPropertyOp53
 70
     1
102
RTVSPropertyOp54
 70
     1
102
RTVSPropertyOp55
 70
     1
102
RTVSPropertyOp56
 70
     1
102
RTVSPropertyOp57
 70
     1
102
RTVSPropertyOp58
 70
     1
102
RTVSPropertyOp59
 70
     1
102
RTVSPropertyOp60
 70
     1
102
RTVSPropertyOp61
 70
     1
102
RTVSPropertyOp62
 70
     1
  0
XRECORD
  5
EDD
102
{ACAD_REACTORS
330
EDC
102
}
330
EDC
100
AcDbXrecord
280
     1
102
RTVSPost2010Prop28
280
     0
102
RTVSPost2010PropOp28
 70
     1
102
RTVSPost2010Prop29
280
     1
102
RTVSPost2010PropOp29
 70
     1
102
RTVSPost2010Prop30
280
     1
102
RTVSPost2010PropOp30
 70
     1
102
RTVSPost2010Prop31
280
     0
102
RTVSPost2010PropOp31
 70
     1
102
RTVSPost2010Prop32
280
     0
102
RTVSPost2010PropOp32
 70
     1
102
RTVSPost2010Prop33
280
     0
102
RTVSPost2010PropOp33
 70
     1
102
RTVSPost2010Prop34
280
     0
102
RTVSPost2010PropOp34
 70
     1
102
RTVSPost2010Prop35
280
     0
102
RTVSPost2010PropOp35
 70
     1
102
RTVSPost2010Prop36
280
     0
102
RTVSPost2010PropOp36
 70
     1
102
RTVSPost2010Prop37
 90
       50
102
RTVSPost2010PropOp37
 70
     1
102
RTVSPost2010Prop38
140
0.0
102
RTVSPost2010PropOp38
 70
     1
102
RTVSPost2010Prop39
140
1.0
102
RTVSPost2010PropOp39
 70
     1
102
RTVSPost2010Prop40
 90
        0
102
RTVSPost2010PropOp40
 70
     1
102
RTVSPost2010Prop41ColorIndex
 90
       18
102
RTVSPost2010Prop41ColorRGB
 90
        0
102
RTVSPost2010PropOp41
 70
     1
102
RTVSPost2010Prop42
 90
       50
102
RTVSPost2010PropOp42
 70
     1
102
RTVSPost2010Prop43
 90
        3
102
RTVSPost2010PropOp43
 70
     1
102
RTVSPost2010Prop44ColorIndex
 90
        5
102
RTVSPost2010Prop44ColorRGB
 90
      255
102
RTVSPost2010PropOp44
 70
     1
102
RTVSPost2010Prop45
280
     0
102
RTVSPost2010PropOp45
 70
     1
102
RTVSPost2010Prop46
 90
       50
102
RTVSPost2010PropOp46
 70
     1
102
RTVSPost2010Prop47
 90
       50
102
RTVSPost2010PropOp47
 70
     1
102
RTVSPost2010Prop48
 90
       50
102
RTVSPost2010PropOp48
 70
     1
102
RTVSPost2010Prop49
280
     0
102
RTVSPost2010PropOp49
 70
     1
102
RTVSPost2010Prop50
 90
       50
102
RTVSPost2010PropOp50
 70
     1
102
RTVSPost2010Prop51ColorIndex
 90
      256
102
RTVSPost2010Prop51ColorRGB
 90
-16777216
102
RTVSPost2010PropOp51
 70
     0
102
RTVSPost2010Prop52
140
1.0
102
RTVSPost2010PropOp52
 70
     0
102
RTVSPost2010Prop53
 90
        2
102
RTVSPost2010PropOp53
 70
     1
102
RTVSPost2010Prop54
  1
strokes_ogs.tif
102
RTVSPost2010PropOp54
 70
     1
102
RTVSPost2010Prop55
280
     0
102
RTVSPost2010PropOp55
 70
     1
102
RTVSPost2010Prop56
140
1.0
102
RTVSPost2010PropOp56
 70
     1
102
RTVSPost2010Prop57
140
1.0
102
RTVSPost2010PropOp57
 70
     1
102
RTVSPropertyOp0
 70
     1
102
RTVSPropertyOp1
 70
     1
102
RTVSPropertyOp2
 70
     1
102
RTVSPropertyOp3
 70
     1
102
RTVSPropertyOp4
 70
     1
102
RTVSPropertyOp5
 70
     1
102
RTVSPropertyOp6
 70
     1
102
RTVSPropertyOp7
 70
     1
102
RTVSPropertyOp8
 70
     1
102
RTVSPropertyOp9
 70
     1
102
RTVSPropertyOp10
 70
     1
102
RTVSPropertyOp11
 70
     1
102
RTVSPropertyOp12
 70
     1
102
RTVSPropertyOp13
 70
     1
102
RTVSPropertyOp14
 70
     1
102
RTVSPropertyOp15
 70
     1
102
RTVSPropertyOp16
 70
     1
102
RTVSPropertyOp17
 70
     1
102
RTVSPropertyOp18
 70
     1
102
RTVSPropertyOp19
 70
     1
102
RTVSPropertyOp20
 70
     1
102
RTVSPropertyOp21
 70
     1
102
RTVSPropertyOp22
 70
     1
102
RTVSPropertyOp23
 70
     1
102
RTVSPropertyOp24
 70
     1
102
RTVSPropertyOp25
 70
     1
102
RTVSPropertyOp26
 70
     1
102
RTVSPropertyOp27
 70
     1
102
RTVSPropertyOp28
 70
     1
102
RTVSPropertyOp29
 70
     1
102
RTVSPropertyOp30
 70
     1
102
RTVSPropertyOp31
 70
     1
102
RTVSPropertyOp32
 70
     1
102
RTVSPropertyOp33
 70
     1
102
RTVSPropertyOp34
 70
     1
102
RTVSPropertyOp35
 70
     1
102
RTVSPropertyOp36
 70
     1
102
RTVSPropertyOp37
 70
     1
102
RTVSPropertyOp38
 70
     1
102
RTVSPropertyOp39
 70
     1
102
RTVSPropertyOp40
 70
     1
102
RTVSPropertyOp41
 70
     1
102
RTVSPropertyOp42
 70
     1
102
RTVSPropertyOp43
 70
     1
102
RTVSPropertyOp44
 70
     1
102
RTVSPropertyOp45
 70
     1
102
RTVSPropertyOp46
 70
     1
102
RTVSPropertyOp47
 70
     1
102
RTVSPropertyOp48
 70
     1
102
RTVSPropertyOp49
 70
     1
102
RTVSPropertyOp50
 70
     1
102
RTVSPropertyOp51
 70
     0
102
RTVSPropertyOp52
 70
     0
102
RTVSPropertyOp53
 70
     1
102
RTVSPropertyOp54
 70
     1
102
RTVSPropertyOp55
 70
     1
102
RTVSPropertyOp56
 70
     1
102
RTVSPropertyOp57
 70
     1
102
RTVSPropertyOp58
 70
     1
102
RTVSPropertyOp59
 70
     1
102
RTVSPropertyOp60
 70
     1
102
RTVSPropertyOp61
 70
     1
102
RTVSPropertyOp62
 70
     1
  0
XRECORD
  5
EDB
102
{ACAD_REACTORS
330
EDA
102
}
330
EDA
100
AcDbXrecord
280
     1
102
RTVSPost2010Prop28
280
     0
102
RTVSPost2010PropOp28
 70
     1
102
RTVSPost2010Prop29
280
     1
102
RTVSPost2010PropOp29
 70
     1
102
RTVSPost2010Prop30
280
     1
102
RTVSPost2010PropOp30
 70
     1
102
RTVSPost2010Prop31
280
     0
102
RTVSPost2010PropOp31
 70
     1
102
RTVSPost2010Prop32
280
     0
102
RTVSPost2010PropOp32
 70
     1
102
RTVSPost2010Prop33
280
     0
102
RTVSPost2010PropOp33
 70
     1
102
RTVSPost2010Prop34
280
     0
102
RTVSPost2010PropOp34
 70
     1
102
RTVSPost2010Prop35
280
     0
102
RTVSPost2010PropOp35
 70
     1
102
RTVSPost2010Prop36
280
     0
102
RTVSPost2010PropOp36
 70
     1
102
RTVSPost2010Prop37
 90
       50
102
RTVSPost2010PropOp37
 70
     1
102
RTVSPost2010Prop38
140
0.0
102
RTVSPost2010PropOp38
 70
     1
102
RTVSPost2010Prop39
140
1.0
102
RTVSPost2010PropOp39
 70
     1
102
RTVSPost2010Prop40
 90
        0
102
RTVSPost2010PropOp40
 70
     1
102
RTVSPost2010Prop41ColorIndex
 90
       18
102
RTVSPost2010Prop41ColorRGB
 90
        0
102
RTVSPost2010PropOp41
 70
     1
102
RTVSPost2010Prop42
 90
       50
102
RTVSPost2010PropOp42
 70
     1
102
RTVSPost2010Prop43
 90
        3
102
RTVSPost2010PropOp43
 70
     1
102
RTVSPost2010Prop44ColorIndex
 90
        5
102
RTVSPost2010Prop44ColorRGB
 90
      255
102
RTVSPost2010PropOp44
 70
     1
102
RTVSPost2010Prop45
280
     0
102
RTVSPost2010PropOp45
 70
     1
102
RTVSPost2010Prop46
 90
       50
102
RTVSPost2010PropOp46
 70
     1
102
RTVSPost2010Prop47
 90
       50
102
RTVSPost2010PropOp47
 70
     1
102
RTVSPost2010Prop48
 90
       50
102
RTVSPost2010PropOp48
 70
     1
102
RTVSPost2010Prop49
280
     0
102
RTVSPost2010PropOp49
 70
     1
102
RTVSPost2010Prop50
 90
       50
102
RTVSPost2010PropOp50
 70
     1
102
RTVSPost2010Prop51ColorIndex
 90
      256
102
RTVSPost2010Prop51ColorRGB
 90
-16777216
102
RTVSPost2010PropOp51
 70
     0
102
RTVSPost2010Prop52
140
1.0
102
RTVSPost2010PropOp52
 70
     0
102
RTVSPost2010Prop53
 90
        2
102
RTVSPost2010PropOp53
 70
     1
102
RTVSPost2010Prop54
  1
strokes_ogs.tif
102
RTVSPost2010PropOp54
 70
     1
102
RTVSPost2010Prop55
280
     0
102
RTVSPost2010PropOp55
 70
     1
102
RTVSPost2010Prop56
140
1.0
102
RTVSPost2010PropOp56
 70
     1
102
RTVSPost2010Prop57
140
1.0
102
RTVSPost2010PropOp57
 70
     1
102
RTVSPropertyOp0
 70
     1
102
RTVSPropertyOp1
 70
     1
102
RTVSPropertyOp2
 70
     1
102
RTVSPropertyOp3
 70
     1
102
RTVSPropertyOp4
 70
     1
102
RTVSPropertyOp5
 70
     1
102
RTVSPropertyOp6
 70
     1
102
RTVSPropertyOp7
 70
     1
102
RTVSPropertyOp8
 70
     1
102
RTVSPropertyOp9
 70
     1
102
RTVSPropertyOp10
 70
     1
102
RTVSPropertyOp11
 70
     1
102
RTVSPropertyOp12
 70
     1
102
RTVSPropertyOp13
 70
     1
102
RTVSPropertyOp14
 70
     1
102
RTVSPropertyOp15
 70
     1
102
RTVSPropertyOp16
 70
     1
102
RTVSPropertyOp17
 70
     1
102
RTVSPropertyOp18
 70
     1
102
RTVSPropertyOp19
 70
     1
102
RTVSPropertyOp20
 70
     1
102
RTVSPropertyOp21
 70
     1
102
RTVSPropertyOp22
 70
     1
102
RTVSPropertyOp23
 70
     1
102
RTVSPropertyOp24
 70
     1
102
RTVSPropertyOp25
 70
     1
102
RTVSPropertyOp26
 70
     1
102
RTVSPropertyOp27
 70
     1
102
RTVSPropertyOp28
 70
     1
102
RTVSPropertyOp29
 70
     1
102
RTVSPropertyOp30
 70
     1
102
RTVSPropertyOp31
 70
     1
102
RTVSPropertyOp32
 70
     1
102
RTVSPropertyOp33
 70
     1
102
RTVSPropertyOp34
 70
     1
102
RTVSPropertyOp35
 70
     1
102
RTVSPropertyOp36
 70
     1
102
RTVSPropertyOp37
 70
     1
102
RTVSPropertyOp38
 70
     1
102
RTVSPropertyOp39
 70
     1
102
RTVSPropertyOp40
 70
     1
102
RTVSPropertyOp41
 70
     1
102
RTVSPropertyOp42
 70
     1
102
RTVSPropertyOp43
 70
     1
102
RTVSPropertyOp44
 70
     1
102
RTVSPropertyOp45
 70
     1
102
RTVSPropertyOp46
 70
     1
102
RTVSPropertyOp47
 70
     1
102
RTVSPropertyOp48
 70
     1
102
RTVSPropertyOp49
 70
     1
102
RTVSPropertyOp50
 70
     1
102
RTVSPropertyOp51
 70
     0
102
RTVSPropertyOp52
 70
     0
102
RTVSPropertyOp53
 70
     1
102
RTVSPropertyOp54
 70
     1
102
RTVSPropertyOp55
 70
     1
102
RTVSPropertyOp56
 70
     1
102
RTVSPropertyOp57
 70
     1
102
RTVSPropertyOp58
 70
     1
102
RTVSPropertyOp59
 70
     1
102
RTVSPropertyOp60
 70
     1
102
RTVSPropertyOp61
 70
     1
102
RTVSPropertyOp62
 70
     1
  0
XRECORD
  5
ED5
102
{ACAD_REACTORS
330
ED4
102
}
330
ED4
100
AcDbXrecord
280
     1
102
RTVSPost2010Prop28
280
     0
102
RTVSPost2010PropOp28
 70
     1
102
RTVSPost2010Prop29
280
     1
102
RTVSPost2010PropOp29
 70
     1
102
RTVSPost2010Prop30
280
     1
102
RTVSPost2010PropOp30
 70
     1
102
RTVSPost2010Prop31
280
     0
102
RTVSPost2010PropOp31
 70
     1
102
RTVSPost2010Prop32
280
     0
102
RTVSPost2010PropOp32
 70
     1
102
RTVSPost2010Prop33
280
     0
102
RTVSPost2010PropOp33
 70
     1
102
RTVSPost2010Prop34
280
     0
102
RTVSPost2010PropOp34
 70
     1
102
RTVSPost2010Prop35
280
     0
102
RTVSPost2010PropOp35
 70
     1
102
RTVSPost2010Prop36
280
     0
102
RTVSPost2010PropOp36
 70
     1
102
RTVSPost2010Prop37
 90
       50
102
RTVSPost2010PropOp37
 70
     1
102
RTVSPost2010Prop38
140
0.0
102
RTVSPost2010PropOp38
 70
     1
102
RTVSPost2010Prop39
140
1.0
102
RTVSPost2010PropOp39
 70
     1
102
RTVSPost2010Prop40
 90
        0
102
RTVSPost2010PropOp40
 70
     1
102
RTVSPost2010Prop41ColorIndex
 90
       18
102
RTVSPost2010Prop41ColorRGB
 90
        0
102
RTVSPost2010PropOp41
 70
     1
102
RTVSPost2010Prop42
 90
       50
102
RTVSPost2010PropOp42
 70
     1
102
RTVSPost2010Prop43
 90
        3
102
RTVSPost2010PropOp43
 70
     1
102
RTVSPost2010Prop44ColorIndex
 90
        5
102
RTVSPost2010Prop44ColorRGB
 90
      255
102
RTVSPost2010PropOp44
 70
     1
102
RTVSPost2010Prop45
280
     0
102
RTVSPost2010PropOp45
 70
     1
102
RTVSPost2010Prop46
 90
       50
102
RTVSPost2010PropOp46
 70
     1
102
RTVSPost2010Prop47
 90
       50
102
RTVSPost2010PropOp47
 70
     1
102
RTVSPost2010Prop48
 90
       50
102
RTVSPost2010PropOp48
 70
     1
102
RTVSPost2010Prop49
280
     0
102
RTVSPost2010PropOp49
 70
     1
102
RTVSPost2010Prop50
 90
       50
102
RTVSPost2010PropOp50
 70
     1
102
RTVSPost2010Prop51ColorIndex
 90
      256
102
RTVSPost2010Prop51ColorRGB
 90
-16777216
102
RTVSPost2010PropOp51
 70
     0
102
RTVSPost2010Prop52
140
1.0
102
RTVSPost2010PropOp52
 70
     0
102
RTVSPost2010Prop53
 90
        2
102
RTVSPost2010PropOp53
 70
     1
102
RTVSPost2010Prop54
  1
strokes_ogs.tif
102
RTVSPost2010PropOp54
 70
     1
102
RTVSPost2010Prop55
280
     0
102
RTVSPost2010PropOp55
 70
     1
102
RTVSPost2010Prop56
140
1.0
102
RTVSPost2010PropOp56
 70
     1
102
RTVSPost2010Prop57
140
1.0
102
RTVSPost2010PropOp57
 70
     1
102
RTVSPropertyOp0
 70
     1
102
RTVSPropertyOp1
 70
     1
102
RTVSPropertyOp2
 70
     1
102
RTVSPropertyOp3
 70
     1
102
RTVSPropertyOp4
 70
     1
102
RTVSPropertyOp5
 70
     1
102
RTVSPropertyOp6
 70
     1
102
RTVSPropertyOp7
 70
     1
102
RTVSPropertyOp8
 70
     1
102
RTVSPropertyOp9
 70
     1
102
RTVSPropertyOp10
 70
     1
102
RTVSPropertyOp11
 70
     1
102
RTVSPropertyOp12
 70
     1
102
RTVSPropertyOp13
 70
     1
102
RTVSPropertyOp14
 70
     1
102
RTVSPropertyOp15
 70
     1
102
RTVSPropertyOp16
 70
     1
102
RTVSPropertyOp17
 70
     1
102
RTVSPropertyOp18
 70
     1
102
RTVSPropertyOp19
 70
     1
102
RTVSPropertyOp20
 70
     1
102
RTVSPropertyOp21
 70
     1
102
RTVSPropertyOp22
 70
     1
102
RTVSPropertyOp23
 70
     1
102
RTVSPropertyOp24
 70
     1
102
RTVSPropertyOp25
 70
     1
102
RTVSPropertyOp26
 70
     1
102
RTVSPropertyOp27
 70
     1
102
RTVSPropertyOp28
 70
     1
102
RTVSPropertyOp29
 70
     1
102
RTVSPropertyOp30
 70
     1
102
RTVSPropertyOp31
 70
     1
102
RTVSPropertyOp32
 70
     1
102
RTVSPropertyOp33
 70
     1
102
RTVSPropertyOp34
 70
     1
102
RTVSPropertyOp35
 70
     1
102
RTVSPropertyOp36
 70
     1
102
RTVSPropertyOp37
 70
     1
102
RTVSPropertyOp38
 70
     1
102
RTVSPropertyOp39
 70
     1
102
RTVSPropertyOp40
 70
     1
102
RTVSPropertyOp41
 70
     1
102
RTVSPropertyOp42
 70
     1
102
RTVSPropertyOp43
 70
     1
102
RTVSPropertyOp44
 70
     1
102
RTVSPropertyOp45
 70
     1
102
RTVSPropertyOp46
 70
     1
102
RTVSPropertyOp47
 70
     1
102
RTVSPropertyOp48
 70
     1
102
RTVSPropertyOp49
 70
     1
102
RTVSPropertyOp50
 70
     1
102
RTVSPropertyOp51
 70
     0
102
RTVSPropertyOp52
 70
     0
102
RTVSPropertyOp53
 70
     1
102
RTVSPropertyOp54
 70
     1
102
RTVSPropertyOp55
 70
     1
102
RTVSPropertyOp56
 70
     1
102
RTVSPropertyOp57
 70
     1
102
RTVSPropertyOp58
 70
     1
102
RTVSPropertyOp59
 70
     1
102
RTVSPropertyOp60
 70
     1
102
RTVSPropertyOp61
 70
     1
102
RTVSPropertyOp62
 70
     1
  0
XRECORD
  5
ED7
102
{ACAD_REACTORS
330
ED6
102
}
330
ED6
100
AcDbXrecord
280
     1
102
RTVSPost2010Prop28
280
     0
102
RTVSPost2010PropOp28
 70
     1
102
RTVSPost2010Prop29
280
     1
102
RTVSPost2010PropOp29
 70
     1
102
RTVSPost2010Prop30
280
     1
102
RTVSPost2010PropOp30
 70
     1
102
RTVSPost2010Prop31
280
     0
102
RTVSPost2010PropOp31
 70
     1
102
RTVSPost2010Prop32
280
     0
102
RTVSPost2010PropOp32
 70
     1
102
RTVSPost2010Prop33
280
     0
102
RTVSPost2010PropOp33
 70
     1
102
RTVSPost2010Prop34
280
     0
102
RTVSPost2010PropOp34
 70
     1
102
RTVSPost2010Prop35
280
     0
102
RTVSPost2010PropOp35
 70
     1
102
RTVSPost2010Prop36
280
     0
102
RTVSPost2010PropOp36
 70
     1
102
RTVSPost2010Prop37
 90
       50
102
RTVSPost2010PropOp37
 70
     1
102
RTVSPost2010Prop38
140
0.0
102
RTVSPost2010PropOp38
 70
     1
102
RTVSPost2010Prop39
140
1.0
102
RTVSPost2010PropOp39
 70
     1
102
RTVSPost2010Prop40
 90
        0
102
RTVSPost2010PropOp40
 70
     1
102
RTVSPost2010Prop41ColorIndex
 90
       18
102
RTVSPost2010Prop41ColorRGB
 90
        0
102
RTVSPost2010PropOp41
 70
     1
102
RTVSPost2010Prop42
 90
       50
102
RTVSPost2010PropOp42
 70
     1
102
RTVSPost2010Prop43
 90
        3
102
RTVSPost2010PropOp43
 70
     1
102
RTVSPost2010Prop44ColorIndex
 90
        5
102
RTVSPost2010Prop44ColorRGB
 90
      255
102
RTVSPost2010PropOp44
 70
     1
102
RTVSPost2010Prop45
280
     0
102
RTVSPost2010PropOp45
 70
     1
102
RTVSPost2010Prop46
 90
       50
102
RTVSPost2010PropOp46
 70
     1
102
RTVSPost2010Prop47
 90
       50
102
RTVSPost2010PropOp47
 70
     1
102
RTVSPost2010Prop48
 90
       50
102
RTVSPost2010PropOp48
 70
     1
102
RTVSPost2010Prop49
280
     0
102
RTVSPost2010PropOp49
 70
     1
102
RTVSPost2010Prop50
 90
       50
102
RTVSPost2010PropOp50
 70
     1
102
RTVSPost2010Prop51ColorIndex
 90
      256
102
RTVSPost2010Prop51ColorRGB
 90
-16777216
102
RTVSPost2010PropOp51
 70
     0
102
RTVSPost2010Prop52
140
1.0
102
RTVSPost2010PropOp52
 70
     0
102
RTVSPost2010Prop53
 90
        2
102
RTVSPost2010PropOp53
 70
     1
102
RTVSPost2010Prop54
  1
strokes_ogs.tif
102
RTVSPost2010PropOp54
 70
     1
102
RTVSPost2010Prop55
280
     0
102
RTVSPost2010PropOp55
 70
     1
102
RTVSPost2010Prop56
140
1.0
102
RTVSPost2010PropOp56
 70
     1
102
RTVSPost2010Prop57
140
1.0
102
RTVSPost2010PropOp57
 70
     1
102
RTVSPropertyOp0
 70
     1
102
RTVSPropertyOp1
 70
     1
102
RTVSPropertyOp2
 70
     1
102
RTVSPropertyOp3
 70
     1
102
RTVSPropertyOp4
 70
     1
102
RTVSPropertyOp5
 70
     1
102
RTVSPropertyOp6
 70
     1
102
RTVSPropertyOp7
 70
     1
102
RTVSPropertyOp8
 70
     1
102
RTVSPropertyOp9
 70
     1
102
RTVSPropertyOp10
 70
     1
102
RTVSPropertyOp11
 70
     1
102
RTVSPropertyOp12
 70
     1
102
RTVSPropertyOp13
 70
     1
102
RTVSPropertyOp14
 70
     1
102
RTVSPropertyOp15
 70
     1
102
RTVSPropertyOp16
 70
     1
102
RTVSPropertyOp17
 70
     1
102
RTVSPropertyOp18
 70
     1
102
RTVSPropertyOp19
 70
     1
102
RTVSPropertyOp20
 70
     1
102
RTVSPropertyOp21
 70
     1
102
RTVSPropertyOp22
 70
     1
102
RTVSPropertyOp23
 70
     1
102
RTVSPropertyOp24
 70
     1
102
RTVSPropertyOp25
 70
     1
102
RTVSPropertyOp26
 70
     1
102
RTVSPropertyOp27
 70
     1
102
RTVSPropertyOp28
 70
     1
102
RTVSPropertyOp29
 70
     1
102
RTVSPropertyOp30
 70
     1
102
RTVSPropertyOp31
 70
     1
102
RTVSPropertyOp32
 70
     1
102
RTVSPropertyOp33
 70
     1
102
RTVSPropertyOp34
 70
     1
102
RTVSPropertyOp35
 70
     1
102
RTVSPropertyOp36
 70
     1
102
RTVSPropertyOp37
 70
     1
102
RTVSPropertyOp38
 70
     1
102
RTVSPropertyOp39
 70
     1
102
RTVSPropertyOp40
 70
     1
102
RTVSPropertyOp41
 70
     1
102
RTVSPropertyOp42
 70
     1
102
RTVSPropertyOp43
 70
     1
102
RTVSPropertyOp44
 70
     1
102
RTVSPropertyOp45
 70
     1
102
RTVSPropertyOp46
 70
     1
102
RTVSPropertyOp47
 70
     1
102
RTVSPropertyOp48
 70
     1
102
RTVSPropertyOp49
 70
     1
102
RTVSPropertyOp50
 70
     1
102
RTVSPropertyOp51
 70
     0
102
RTVSPropertyOp52
 70
     0
102
RTVSPropertyOp53
 70
     1
102
RTVSPropertyOp54
 70
     1
102
RTVSPropertyOp55
 70
     1
102
RTVSPropertyOp56
 70
     1
102
RTVSPropertyOp57
 70
     1
102
RTVSPropertyOp58
 70
     1
102
RTVSPropertyOp59
 70
     1
102
RTVSPropertyOp60
 70
     1
102
RTVSPropertyOp61
 70
     1
102
RTVSPropertyOp62
 70
     1
  0
XRECORD
  5
ECD
102
{ACAD_REACTORS
330
ECC
102
}
330
ECC
100
AcDbXrecord
280
     1
102
RTVSPost2010Prop28
280
     0
102
RTVSPost2010PropOp28
 70
     1
102
RTVSPost2010Prop29
280
     1
102
RTVSPost2010PropOp29
 70
     1
102
RTVSPost2010Prop30
280
     1
102
RTVSPost2010PropOp30
 70
     1
102
RTVSPost2010Prop31
280
     0
102
RTVSPost2010PropOp31
 70
     1
102
RTVSPost2010Prop32
280
     0
102
RTVSPost2010PropOp32
 70
     1
102
RTVSPost2010Prop33
280
     0
102
RTVSPost2010PropOp33
 70
     1
102
RTVSPost2010Prop34
280
     0
102
RTVSPost2010PropOp34
 70
     1
102
RTVSPost2010Prop35
280
     0
102
RTVSPost2010PropOp35
 70
     1
102
RTVSPost2010Prop36
280
     0
102
RTVSPost2010PropOp36
 70
     1
102
RTVSPost2010Prop37
 90
       50
102
RTVSPost2010PropOp37
 70
     1
102
RTVSPost2010Prop38
140
0.0
102
RTVSPost2010PropOp38
 70
     1
102
RTVSPost2010Prop39
140
1.0
102
RTVSPost2010PropOp39
 70
     1
102
RTVSPost2010Prop40
 90
        0
102
RTVSPost2010PropOp40
 70
     1
102
RTVSPost2010Prop41ColorIndex
 90
       18
102
RTVSPost2010Prop41ColorRGB
 90
        0
102
RTVSPost2010PropOp41
 70
     1
102
RTVSPost2010Prop42
 90
       50
102
RTVSPost2010PropOp42
 70
     1
102
RTVSPost2010Prop43
 90
        3
102
RTVSPost2010PropOp43
 70
     1
102
RTVSPost2010Prop44ColorIndex
 90
        5
102
RTVSPost2010Prop44ColorRGB
 90
      255
102
RTVSPost2010PropOp44
 70
     1
102
RTVSPost2010Prop45
280
     0
102
RTVSPost2010PropOp45
 70
     1
102
RTVSPost2010Prop46
 90
       50
102
RTVSPost2010PropOp46
 70
     1
102
RTVSPost2010Prop47
 90
       50
102
RTVSPost2010PropOp47
 70
     1
102
RTVSPost2010Prop48
 90
       50
102
RTVSPost2010PropOp48
 70
     1
102
RTVSPost2010Prop49
280
     0
102
RTVSPost2010PropOp49
 70
     1
102
RTVSPost2010Prop50
 90
       50
102
RTVSPost2010PropOp50
 70
     1
102
RTVSPost2010Prop51ColorIndex
 90
      256
102
RTVSPost2010Prop51ColorRGB
 90
-16777216
102
RTVSPost2010PropOp51
 70
     0
102
RTVSPost2010Prop52
140
1.0
102
RTVSPost2010PropOp52
 70
     0
102
RTVSPost2010Prop53
 90
        2
102
RTVSPost2010PropOp53
 70
     1
102
RTVSPost2010Prop54
  1
strokes_ogs.tif
102
RTVSPost2010PropOp54
 70
     1
102
RTVSPost2010Prop55
280
     0
102
RTVSPost2010PropOp55
 70
     1
102
RTVSPost2010Prop56
140
1.0
102
RTVSPost2010PropOp56
 70
     1
102
RTVSPost2010Prop57
140
1.0
102
RTVSPost2010PropOp57
 70
     1
102
RTVSPropertyOp0
 70
     1
102
RTVSPropertyOp1
 70
     1
102
RTVSPropertyOp2
 70
     1
102
RTVSPropertyOp3
 70
     1
102
RTVSPropertyOp4
 70
     1
102
RTVSPropertyOp5
 70
     1
102
RTVSPropertyOp6
 70
     1
102
RTVSPropertyOp7
 70
     1
102
RTVSPropertyOp8
 70
     1
102
RTVSPropertyOp9
 70
     1
102
RTVSPropertyOp10
 70
     1
102
RTVSPropertyOp11
 70
     1
102
RTVSPropertyOp12
 70
     1
102
RTVSPropertyOp13
 70
     1
102
RTVSPropertyOp14
 70
     1
102
RTVSPropertyOp15
 70
     1
102
RTVSPropertyOp16
 70
     1
102
RTVSPropertyOp17
 70
     1
102
RTVSPropertyOp18
 70
     1
102
RTVSPropertyOp19
 70
     1
102
RTVSPropertyOp20
 70
     1
102
RTVSPropertyOp21
 70
     1
102
RTVSPropertyOp22
 70
     1
102
RTVSPropertyOp23
 70
     1
102
RTVSPropertyOp24
 70
     1
102
RTVSPropertyOp25
 70
     1
102
RTVSPropertyOp26
 70
     1
102
RTVSPropertyOp27
 70
     1
102
RTVSPropertyOp28
 70
     1
102
RTVSPropertyOp29
 70
     1
102
RTVSPropertyOp30
 70
     1
102
RTVSPropertyOp31
 70
     1
102
RTVSPropertyOp32
 70
     1
102
RTVSPropertyOp33
 70
     1
102
RTVSPropertyOp34
 70
     1
102
RTVSPropertyOp35
 70
     1
102
RTVSPropertyOp36
 70
     1
102
RTVSPropertyOp37
 70
     1
102
RTVSPropertyOp38
 70
     1
102
RTVSPropertyOp39
 70
     1
102
RTVSPropertyOp40
 70
     1
102
RTVSPropertyOp41
 70
     1
102
RTVSPropertyOp42
 70
     1
102
RTVSPropertyOp43
 70
     1
102
RTVSPropertyOp44
 70
     1
102
RTVSPropertyOp45
 70
     1
102
RTVSPropertyOp46
 70
     1
102
RTVSPropertyOp47
 70
     1
102
RTVSPropertyOp48
 70
     1
102
RTVSPropertyOp49
 70
     1
102
RTVSPropertyOp50
 70
     1
102
RTVSPropertyOp51
 70
     0
102
RTVSPropertyOp52
 70
     0
102
RTVSPropertyOp53
 70
     1
102
RTVSPropertyOp54
 70
     1
102
RTVSPropertyOp55
 70
     1
102
RTVSPropertyOp56
 70
     1
102
RTVSPropertyOp57
 70
     1
102
RTVSPropertyOp58
 70
     1
102
RTVSPropertyOp59
 70
     1
102
RTVSPropertyOp60
 70
     1
102
RTVSPropertyOp61
 70
     1
102
RTVSPropertyOp62
 70
     1
  0
XRECORD
  5
EC1
102
{ACAD_REACTORS
330
EC0
102
}
330
EC0
100
AcDbXrecord
280
     1
102
RTVSPost2010Prop28
280
     0
102
RTVSPost2010PropOp28
 70
     1
102
RTVSPost2010Prop29
280
     1
102
RTVSPost2010PropOp29
 70
     1
102
RTVSPost2010Prop30
280
     1
102
RTVSPost2010PropOp30
 70
     1
102
RTVSPost2010Prop31
280
     0
102
RTVSPost2010PropOp31
 70
     1
102
RTVSPost2010Prop32
280
     0
102
RTVSPost2010PropOp32
 70
     1
102
RTVSPost2010Prop33
280
     0
102
RTVSPost2010PropOp33
 70
     1
102
RTVSPost2010Prop34
280
     0
102
RTVSPost2010PropOp34
 70
     1
102
RTVSPost2010Prop35
280
     0
102
RTVSPost2010PropOp35
 70
     1
102
RTVSPost2010Prop36
280
     0
102
RTVSPost2010PropOp36
 70
     1
102
RTVSPost2010Prop37
 90
       50
102
RTVSPost2010PropOp37
 70
     1
102
RTVSPost2010Prop38
140
0.0
102
RTVSPost2010PropOp38
 70
     1
102
RTVSPost2010Prop39
140
1.0
102
RTVSPost2010PropOp39
 70
     1
102
RTVSPost2010Prop40
 90
        0
102
RTVSPost2010PropOp40
 70
     1
102
RTVSPost2010Prop41ColorIndex
 90
       18
102
RTVSPost2010Prop41ColorRGB
 90
        0
102
RTVSPost2010PropOp41
 70
     1
102
RTVSPost2010Prop42
 90
       50
102
RTVSPost2010PropOp42
 70
     1
102
RTVSPost2010Prop43
 90
        3
102
RTVSPost2010PropOp43
 70
     1
102
RTVSPost2010Prop44ColorIndex
 90
        5
102
RTVSPost2010Prop44ColorRGB
 90
      255
102
RTVSPost2010PropOp44
 70
     1
102
RTVSPost2010Prop45
280
     0
102
RTVSPost2010PropOp45
 70
     1
102
RTVSPost2010Prop46
 90
       50
102
RTVSPost2010PropOp46
 70
     1
102
RTVSPost2010Prop47
 90
       50
102
RTVSPost2010PropOp47
 70
     1
102
RTVSPost2010Prop48
 90
       50
102
RTVSPost2010PropOp48
 70
     1
102
RTVSPost2010Prop49
280
     0
102
RTVSPost2010PropOp49
 70
     1
102
RTVSPost2010Prop50
 90
       50
102
RTVSPost2010PropOp50
 70
     1
102
RTVSPost2010Prop51ColorIndex
 90
      256
102
RTVSPost2010Prop51ColorRGB
 90
-16777216
102
RTVSPost2010PropOp51
 70
     0
102
RTVSPost2010Prop52
140
1.0
102
RTVSPost2010PropOp52
 70
     0
102
RTVSPost2010Prop53
 90
        2
102
RTVSPost2010PropOp53
 70
     1
102
RTVSPost2010Prop54
  1
strokes_ogs.tif
102
RTVSPost2010PropOp54
 70
     1
102
RTVSPost2010Prop55
280
     0
102
RTVSPost2010PropOp55
 70
     1
102
RTVSPost2010Prop56
140
1.0
102
RTVSPost2010PropOp56
 70
     1
102
RTVSPost2010Prop57
140
1.0
102
RTVSPost2010PropOp57
 70
     1
102
RTVSPropertyOp0
 70
     1
102
RTVSPropertyOp1
 70
     1
102
RTVSPropertyOp2
 70
     1
102
RTVSPropertyOp3
 70
     1
102
RTVSPropertyOp4
 70
     1
102
RTVSPropertyOp5
 70
     1
102
RTVSPropertyOp6
 70
     1
102
RTVSPropertyOp7
 70
     1
102
RTVSPropertyOp8
 70
     1
102
RTVSPropertyOp9
 70
     1
102
RTVSPropertyOp10
 70
     1
102
RTVSPropertyOp11
 70
     1
102
RTVSPropertyOp12
 70
     1
102
RTVSPropertyOp13
 70
     1
102
RTVSPropertyOp14
 70
     1
102
RTVSPropertyOp15
 70
     1
102
RTVSPropertyOp16
 70
     1
102
RTVSPropertyOp17
 70
     1
102
RTVSPropertyOp18
 70
     1
102
RTVSPropertyOp19
 70
     1
102
RTVSPropertyOp20
 70
     1
102
RTVSPropertyOp21
 70
     1
102
RTVSPropertyOp22
 70
     1
102
RTVSPropertyOp23
 70
     1
102
RTVSPropertyOp24
 70
     1
102
RTVSPropertyOp25
 70
     1
102
RTVSPropertyOp26
 70
     1
102
RTVSPropertyOp27
 70
     1
102
RTVSPropertyOp28
 70
     1
102
RTVSPropertyOp29
 70
     1
102
RTVSPropertyOp30
 70
     1
102
RTVSPropertyOp31
 70
     1
102
RTVSPropertyOp32
 70
     1
102
RTVSPropertyOp33
 70
     1
102
RTVSPropertyOp34
 70
     1
102
RTVSPropertyOp35
 70
     1
102
RTVSPropertyOp36
 70
     1
102
RTVSPropertyOp37
 70
     1
102
RTVSPropertyOp38
 70
     1
102
RTVSPropertyOp39
 70
     1
102
RTVSPropertyOp40
 70
     1
102
RTVSPropertyOp41
 70
     1
102
RTVSPropertyOp42
 70
     1
102
RTVSPropertyOp43
 70
     1
102
RTVSPropertyOp44
 70
     1
102
RTVSPropertyOp45
 70
     1
102
RTVSPropertyOp46
 70
     1
102
RTVSPropertyOp47
 70
     1
102
RTVSPropertyOp48
 70
     1
102
RTVSPropertyOp49
 70
     1
102
RTVSPropertyOp50
 70
     1
102
RTVSPropertyOp51
 70
     0
102
RTVSPropertyOp52
 70
     0
102
RTVSPropertyOp53
 70
     1
102
RTVSPropertyOp54
 70
     1
102
RTVSPropertyOp55
 70
     1
102
RTVSPropertyOp56
 70
     1
102
RTVSPropertyOp57
 70
     1
102
RTVSPropertyOp58
 70
     1
102
RTVSPropertyOp59
 70
     1
102
RTVSPropertyOp60
 70
     1
102
RTVSPropertyOp61
 70
     1
102
RTVSPropertyOp62
 70
     1
  0
XRECORD
  5
ED9
102
{ACAD_REACTORS
330
ED8
102
}
330
ED8
100
AcDbXrecord
280
     1
102
RTVSPost2010Prop28
280
     0
102
RTVSPost2010PropOp28
 70
     1
102
RTVSPost2010Prop29
280
     1
102
RTVSPost2010PropOp29
 70
     1
102
RTVSPost2010Prop30
280
     1
102
RTVSPost2010PropOp30
 70
     1
102
RTVSPost2010Prop31
280
     0
102
RTVSPost2010PropOp31
 70
     1
102
RTVSPost2010Prop32
280
     0
102
RTVSPost2010PropOp32
 70
     1
102
RTVSPost2010Prop33
280
     0
102
RTVSPost2010PropOp33
 70
     1
102
RTVSPost2010Prop34
280
     0
102
RTVSPost2010PropOp34
 70
     1
102
RTVSPost2010Prop35
280
     0
102
RTVSPost2010PropOp35
 70
     1
102
RTVSPost2010Prop36
280
     0
102
RTVSPost2010PropOp36
 70
     1
102
RTVSPost2010Prop37
 90
       50
102
RTVSPost2010PropOp37
 70
     1
102
RTVSPost2010Prop38
140
0.0
102
RTVSPost2010PropOp38
 70
     1
102
RTVSPost2010Prop39
140
1.0
102
RTVSPost2010PropOp39
 70
     1
102
RTVSPost2010Prop40
 90
        0
102
RTVSPost2010PropOp40
 70
     1
102
RTVSPost2010Prop41ColorIndex
 90
       18
102
RTVSPost2010Prop41ColorRGB
 90
        0
102
RTVSPost2010PropOp41
 70
     1
102
RTVSPost2010Prop42
 90
       50
102
RTVSPost2010PropOp42
 70
     1
102
RTVSPost2010Prop43
 90
        3
102
RTVSPost2010PropOp43
 70
     1
102
RTVSPost2010Prop44ColorIndex
 90
        5
102
RTVSPost2010Prop44ColorRGB
 90
      255
102
RTVSPost2010PropOp44
 70
     1
102
RTVSPost2010Prop45
280
     0
102
RTVSPost2010PropOp45
 70
     1
102
RTVSPost2010Prop46
 90
       50
102
RTVSPost2010PropOp46
 70
     1
102
RTVSPost2010Prop47
 90
       50
102
RTVSPost2010PropOp47
 70
     1
102
RTVSPost2010Prop48
 90
       50
102
RTVSPost2010PropOp48
 70
     1
102
RTVSPost2010Prop49
280
     0
102
RTVSPost2010PropOp49
 70
     1
102
RTVSPost2010Prop50
 90
       50
102
RTVSPost2010PropOp50
 70
     1
102
RTVSPost2010Prop51ColorIndex
 90
      256
102
RTVSPost2010Prop51ColorRGB
 90
-16777216
102
RTVSPost2010PropOp51
 70
     0
102
RTVSPost2010Prop52
140
1.0
102
RTVSPost2010PropOp52
 70
     0
102
RTVSPost2010Prop53
 90
        2
102
RTVSPost2010PropOp53
 70
     1
102
RTVSPost2010Prop54
  1
strokes_ogs.tif
102
RTVSPost2010PropOp54
 70
     1
102
RTVSPost2010Prop55
280
     0
102
RTVSPost2010PropOp55
 70
     1
102
RTVSPost2010Prop56
140
1.0
102
RTVSPost2010PropOp56
 70
     1
102
RTVSPost2010Prop57
140
1.0
102
RTVSPost2010PropOp57
 70
     1
102
RTVSPropertyOp0
 70
     1
102
RTVSPropertyOp1
 70
     1
102
RTVSPropertyOp2
 70
     1
102
RTVSPropertyOp3
 70
     1
102
RTVSPropertyOp4
 70
     1
102
RTVSPropertyOp5
 70
     1
102
RTVSPropertyOp6
 70
     1
102
RTVSPropertyOp7
 70
     1
102
RTVSPropertyOp8
 70
     1
102
RTVSPropertyOp9
 70
     1
102
RTVSPropertyOp10
 70
     1
102
RTVSPropertyOp11
 70
     1
102
RTVSPropertyOp12
 70
     1
102
RTVSPropertyOp13
 70
     1
102
RTVSPropertyOp14
 70
     1
102
RTVSPropertyOp15
 70
     1
102
RTVSPropertyOp16
 70
     1
102
RTVSPropertyOp17
 70
     1
102
RTVSPropertyOp18
 70
     1
102
RTVSPropertyOp19
 70
     1
102
RTVSPropertyOp20
 70
     1
102
RTVSPropertyOp21
 70
     1
102
RTVSPropertyOp22
 70
     1
102
RTVSPropertyOp23
 70
     1
102
RTVSPropertyOp24
 70
     1
102
RTVSPropertyOp25
 70
     1
102
RTVSPropertyOp26
 70
     1
102
RTVSPropertyOp27
 70
     1
102
RTVSPropertyOp28
 70
     1
102
RTVSPropertyOp29
 70
     1
102
RTVSPropertyOp30
 70
     1
102
RTVSPropertyOp31
 70
     1
102
RTVSPropertyOp32
 70
     1
102
RTVSPropertyOp33
 70
     1
102
RTVSPropertyOp34
 70
     1
102
RTVSPropertyOp35
 70
     1
102
RTVSPropertyOp36
 70
     1
102
RTVSPropertyOp37
 70
     1
102
RTVSPropertyOp38
 70
     1
102
RTVSPropertyOp39
 70
     1
102
RTVSPropertyOp40
 70
     1
102
RTVSPropertyOp41
 70
     1
102
RTVSPropertyOp42
 70
     1
102
RTVSPropertyOp43
 70
     1
102
RTVSPropertyOp44
 70
     1
102
RTVSPropertyOp45
 70
     1
102
RTVSPropertyOp46
 70
     1
102
RTVSPropertyOp47
 70
     1
102
RTVSPropertyOp48
 70
     1
102
RTVSPropertyOp49
 70
     1
102
RTVSPropertyOp50
 70
     1
102
RTVSPropertyOp51
 70
     0
102
RTVSPropertyOp52
 70
     0
102
RTVSPropertyOp53
 70
     1
102
RTVSPropertyOp54
 70
     1
102
RTVSPropertyOp55
 70
     1
102
RTVSPropertyOp56
 70
     1
102
RTVSPropertyOp57
 70
     1
102
RTVSPropertyOp58
 70
     1
102
RTVSPropertyOp59
 70
     1
102
RTVSPropertyOp60
 70
     1
102
RTVSPropertyOp61
 70
     1
102
RTVSPropertyOp62
 70
     1
  0
ENDSEC
  0
EOF
